Loading...
Error

(Thrash, Progressive Metal) Voivod - Synchro Anarchy (2022) 2CD [FLAC (Image+.CUE), Lossless]

Статистика раздачи
Размер:  844 MB   |    Зарегистрирован:  6 месяцев   |    Скачан:  1 раз

Полного источника не было: 4 месяца 7 дней

Сидов:  0  |  0 KB/s  ]   Личеров:  0  |  0 KB/s  ]

* - сиды/пиры с внешних источников

   
 
Автор Сообщение

Бишеп Пол:Муж

08-Мар-2022 07:02

Voivod - Synchro Anarchy

Жанр: Thrash, Progressive Metal
Год выпуска: 2022
Носитель: CD
Производитель диска: Century Media - 19439967852
Аудиокодек: FLAC
Тип рипа: Image+.CUE
Битрейт аудио: lossless
Продолжительность: 01:53:28

Треклист:
01. Paranormalium
02. Synchro Anarchy
03. Planet Eaters
04. Mind Clock
05. Sleeves Off
06. Holographic Thinking
07. The World Today
08. Quest For Nothing
09. Memory Failure

Exact Audio Copy V1.3 from 2. September 2016 

EAC extraction logfile from 13. February 2022, 16:14

VOIVOD / Synchro Anarchy

Used drive : ASUS DRW-24D5MT Adapter: 1 ID: 0

Read mode : Secure
Utilize accurate stream : Yes
Defeat audio cache : Yes
Make use of C2 pointers : No

Read offset correction : 6
Overread into Lead-In and Lead-Out : No
Fill up missing offset samples with silence : Yes
Delete leading and trailing silent blocks : No
Null samples used in CRC calculations : Yes
Used interface : Native Win32 interface for Win NT & 2000

Used output format : User Defined Encoder
Selected bitrate : 768 kBit/s
Quality : High
Add ID3 tag : No
Command line compressor : C:\Program Files (x86)\Exact Audio Copy\FLAC\FLAC.EXE
Additional command line options : -6 -V -T "ARTIST=%artist%" -T "TITLE=%title%" -T "ALBUM=%albumtitle%" -T "DATE=%year%" -T "TRACKNUMBER=%tracknr%" -T "GENRE=%genre%" -T "COMMENT=%comment%" -T "BAND=%albuminterpret%" -T "ALBUMARTIST=%albuminterpret%" -T "COMPOSER=%composer%" %haslyrics%--tag-from-file=LYRICS="%lyricsfile%"%haslyrics% -T "DISCNUMBER=%cdnumber%" -T "TOTALDISCS=%totalcds%" -T "TOTALTRACKS=%numtracks%" %hascover%--picture="%coverfile%"%hascover% %source% -o %dest%

TOC of the extracted CD

Track | Start | Length | Start sector | End sector
---------------------------------------------------------
1 | 0:00.00 | 5:34.49 | 0 | 25098
2 | 5:34.49 | 4:25.19 | 25099 | 44992
3 | 9:59.68 | 5:32.39 | 44993 | 69931
4 | 15:32.32 | 6:44.42 | 69932 | 100273
5 | 22:16.74 | 4:08.28 | 100274 | 118901
6 | 26:25.27 | 6:11.57 | 118902 | 146783
7 | 32:37.09 | 4:10.48 | 146784 | 165581
8 | 36:47.57 | 5:37.57 | 165582 | 190913
9 | 42:25.39 | 5:33.44 | 190914 | 215932

Range status and errors

Selected range

Filename E:\Música\EAC\Voivod\VOIVOD - Synchro Anarchy.wav

Peak level 100.0 %
Extraction speed 1.7 X
Range quality 99.9 %
Test CRC D9F43300
Copy CRC D9F43300
Copy OK

No errors occurred

AccurateRip summary
Track 1 not present in database
Track 2 not present in database
Track 3 not present in database
Track 4 not present in database
Track 5 not present in database
Track 6 not present in database
Track 7 not present in database
Track 8 not present in database
Track 9 not present in database
None of the tracks are present in the AccurateRip database

End of status report

---- CUETools DB Plugin V2.1.6

[CTDB TOCID: hsPNgfV246EZKVex1_Bdu6IODZ8-] found
Submit result: hsPNgfV246EZKVex1_Bdu6IODZ8- has been confirmed
Track | CTDB Status
1 | (16/16) Accurately ripped
2 | (16/16) Accurately ripped
3 | (16/16) Accurately ripped
4 | (16/16) Accurately ripped
5 | (16/16) Accurately ripped
6 | (16/16) Accurately ripped
7 | (16/16) Accurately ripped
8 | (16/16) Accurately ripped
9 | (16/16) Accurately ripped

==== Log checksum 8CC90F88B25CDCCCB48EC45AF0FB86B9549EADD3B8093D65C9C68A0AF5B68DAA ====
REM GENRE "Progressive Metal" 
REM DATE 2022
REM DISCID 800B3F09
REM COMMENT "ExactAudioCopy v1.3"
PERFORMER "VOIVOD"
TITLE "Synchro Anarchy"
REM COMPOSER ""
FILE "VOIVOD - Synchro Anarchy.flac" WAVE
TRACK 01 AUDIO
TITLE "Paranormalium"
PERFORMER "VOIVOD"
REM COMPOSER ""
INDEX 01 00:00:00
TRACK 02 AUDIO
TITLE "Synchro Anarchy"
PERFORMER "VOIVOD"
REM COMPOSER ""
INDEX 01 05:34:49
TRACK 03 AUDIO
TITLE "Planet Eaters"
PERFORMER "VOIVOD"
REM COMPOSER ""
INDEX 01 09:59:68
TRACK 04 AUDIO
TITLE "Mind Clock"
PERFORMER "VOIVOD"
REM COMPOSER ""
INDEX 01 15:32:32
TRACK 05 AUDIO
TITLE "Sleeves Off"
PERFORMER "VOIVOD"
REM COMPOSER ""
INDEX 01 22:16:74
TRACK 06 AUDIO
TITLE "Holographic Thinking"
PERFORMER "VOIVOD"
REM COMPOSER ""
INDEX 01 26:25:27
TRACK 07 AUDIO
TITLE "The World Today"
PERFORMER "VOIVOD"
REM COMPOSER ""
INDEX 01 32:37:09
TRACK 08 AUDIO
TITLE "Quest for Nothing"
PERFORMER "VOIVOD"
REM COMPOSER ""
INDEX 01 36:47:57
TRACK 09 AUDIO
TITLE "Memory Failure"
PERFORMER "VOIVOD"
REM COMPOSER ""
INDEX 01 42:25:39
Треклист:
01. Post Society
02. The Unknown Knows
03. Ravenous Medicine
04. Psychic Vacuum
05. Obsolete Beings
06. Technocratic Manipulators
07. Fall
08. The Prow
09. Order Of The Blackguards
10. The Lost Machine
11. Korgull The Exterminator

Exact Audio Copy V1.3 from 2. September 2016 

EAC extraction logfile from 13. February 2022, 16:59

VOIVOD / Synchro Anarchy - Bonus Live CD - Return To Morgöth

Used drive : ASUS DRW-24D5MT Adapter: 1 ID: 0

Read mode : Secure
Utilize accurate stream : Yes
Defeat audio cache : Yes
Make use of C2 pointers : No

Read offset correction : 6
Overread into Lead-In and Lead-Out : No
Fill up missing offset samples with silence : Yes
Delete leading and trailing silent blocks : No
Null samples used in CRC calculations : Yes
Used interface : Native Win32 interface for Win NT & 2000

Used output format : User Defined Encoder
Selected bitrate : 768 kBit/s
Quality : High
Add ID3 tag : No
Command line compressor : C:\Program Files (x86)\Exact Audio Copy\FLAC\FLAC.EXE
Additional command line options : -6 -V -T "ARTIST=%artist%" -T "TITLE=%title%" -T "ALBUM=%albumtitle%" -T "DATE=%year%" -T "TRACKNUMBER=%tracknr%" -T "GENRE=%genre%" -T "COMMENT=%comment%" -T "BAND=%albuminterpret%" -T "ALBUMARTIST=%albuminterpret%" -T "COMPOSER=%composer%" %haslyrics%--tag-from-file=LYRICS="%lyricsfile%"%haslyrics% -T "DISCNUMBER=%cdnumber%" -T "TOTALDISCS=%totalcds%" -T "TOTALTRACKS=%numtracks%" %hascover%--picture="%coverfile%"%hascover% %source% -o %dest%

TOC of the extracted CD

Track | Start | Length | Start sector | End sector
---------------------------------------------------------
1 | 0:00.00 | 7:39.31 | 0 | 34455
2 | 7:39.31 | 6:47.31 | 34456 | 65011
3 | 14:26.62 | 4:42.65 | 65012 | 86226
4 | 19:09.52 | 5:51.56 | 86227 | 112607
5 | 25:01.33 | 4:51.18 | 112608 | 134450
6 | 29:52.51 | 5:25.57 | 134451 | 158882
7 | 35:18.33 | 7:48.68 | 158883 | 194050
8 | 43:07.26 | 4:16.61 | 194051 | 213311
9 | 47:24.12 | 6:13.33 | 213312 | 241319
10 | 53:37.45 | 5:40.26 | 241320 | 266845
11 | 59:17.71 | 6:11.14 | 266846 | 294684

Range status and errors

Selected range

Filename E:\Música\EAC\Voivod\VOIVOD - Synchro Anarchy - Bonus Live CD - Return To Morgöth.wav

Peak level 95.3 %
Extraction speed 2.0 X
Range quality 100.0 %
Test CRC A4C4B46D
Copy CRC A4C4B46D
Copy OK

No errors occurred

AccurateRip summary
Track 1 not present in database
Track 2 not present in database
Track 3 not present in database
Track 4 not present in database
Track 5 not present in database
Track 6 not present in database
Track 7 not present in database
Track 8 not present in database
Track 9 not present in database
Track 10 not present in database
Track 11 not present in database
None of the tracks are present in the AccurateRip database

End of status report

---- CUETools DB Plugin V2.1.6

[CTDB TOCID: y4y5L1mqm.GN5GqQB0lH65N0i8c-] found
Submit result: y4y5L1mqm.GN5GqQB0lH65N0i8c- has been confirmed
Track | CTDB Status
1 | (7/7) Accurately ripped
2 | (7/7) Accurately ripped
3 | (7/7) Accurately ripped
4 | (7/7) Accurately ripped
5 | (7/7) Accurately ripped
6 | (7/7) Accurately ripped
7 | (7/7) Accurately ripped
8 | (7/7) Accurately ripped
9 | (7/7) Accurately ripped
10 | (7/7) Accurately ripped
11 | (7/7) Accurately ripped

==== Log checksum D6C00C991A834F64BF7388CCA57788456F6372BB5F90ECBAA10DC63553ED499E ====
REM GENRE "Progressive Metal" 
REM DATE 2022
REM DISCID 9F0F590B
REM COMMENT "ExactAudioCopy v1.3"
PERFORMER "VOIVOD"
TITLE "Synchro Anarchy - Bonus Live CD - Return To Morgoth"
REM COMPOSER ""
FILE "VOIVOD - Synchro Anarchy - Bonus Live CD - Return To Morgoth.flac" WAVE
TRACK 01 AUDIO
TITLE "Post Society"
PERFORMER "VOIVOD"
REM COMPOSER ""
INDEX 01 00:00:00
TRACK 02 AUDIO
TITLE "The Unknown Knows"
PERFORMER "VOIVOD"
REM COMPOSER ""
INDEX 01 07:39:31
TRACK 03 AUDIO
TITLE "Ravenous Medicine"
PERFORMER "VOIVOD"
REM COMPOSER ""
INDEX 01 14:26:62
TRACK 04 AUDIO
TITLE "Psychic Vacuum"
PERFORMER "VOIVOD"
REM COMPOSER ""
INDEX 01 19:09:52
TRACK 05 AUDIO
TITLE "Obsolete Beings"
PERFORMER "VOIVOD"
REM COMPOSER ""
INDEX 01 25:01:33
TRACK 06 AUDIO
TITLE "Technocratic Manipulators"
PERFORMER "VOIVOD"
REM COMPOSER ""
INDEX 01 29:52:51
TRACK 07 AUDIO
TITLE "Fall"
PERFORMER "VOIVOD"
REM COMPOSER ""
INDEX 01 35:18:33
TRACK 08 AUDIO
TITLE "The Prow"
PERFORMER "VOIVOD"
REM COMPOSER ""
INDEX 01 43:07:26
TRACK 09 AUDIO
TITLE "Order of the Blackguards"
PERFORMER "VOIVOD"
REM COMPOSER ""
INDEX 01 47:24:12
TRACK 10 AUDIO
TITLE "The Lost Machine"
PERFORMER "VOIVOD"
REM COMPOSER ""
INDEX 01 53:37:45
TRACK 11 AUDIO
TITLE "Korgull the Exterminator"
PERFORMER "VOIVOD"
REM COMPOSER ""
INDEX 01 59:17:71

Этот торрент недоступен для скачивания без регистрации, однако доступен по публичной magnet-ссылке (источники с публичных трекеров). Перед использованием ссылки прочтите, пожалуйста Пользовательское соглашение, а также как можно дольше оставайтесь на раздаче! Для того, чтобы скачать сам торрент-файл (который видит больше источников), а также для того, чтобы поблагодарить релизера, вам необходимо зарегистрироваться. Если регистрироваться лень - вы можете также попробовать скачать релиз по нашим партнерским ссылкам ниже. Кроме того, зарегистрированным пользователям не показывается всплывающая реклама при скачивании.

[underver.se].t236856.torrent
Трекер: Зарегистрирован   [ 08.03.2022 07:02 ]  
Статус: проверено (by Бишеп at 08.03.2022 07:02)
Поблагодарили: пока никто не поблагодарил...
Тип торрента: публичный - доступные источники с открытых трекеров: 
Размер: 844 MB (занимает 0.19 DVDR, для записи нужно 1 болванка DVDR/RW)
 
 

Яндекс.Метрика powered by Sphinx


В Н И М А Н И Е
Сайт не распространяет и не хранит электронные версии произведений, а лишь бесплатно и без коммерческой выгоды (не требуя взамен платы,
SMS и т.д.) предоставляет доступ к создаваемому пользователями каталогу ссылок на торрент-файлы, которые содержат только списки хеш-сумм.
Убедительная просьба с жалобами обращаться напрямую к пользователю, разместившему торрент файл.

Вверх