Loading...
Error

(Rock, Soft Rock) Павел Пиковский, Сергей Чиграков - Передай Другому (2021) [FLAC (Tracks+.Cue), Lossless]

Статистика раздачи
Размер:  295 MB   |    Зарегистрирован:  6 месяцев   |    Скачан:  8 раз
Сидов:  1  |  0 KB/s  ]   Личеров:  0  |  0 KB/s  ]

* - сиды/пиры с внешних источников

   
 
Автор Сообщение

Бишеп Пол:Муж

12-Мар-2022 13:06

Павел Пиковский, Сергей Чиграков - Передай Другому

Жанр: Rock, Soft Rock
Год выпуска: 2021
Носитель: CD
Производитель диска: Not On Label (Павел Пиковский Self-released) - none
Аудиокодек: FLAC
Тип рипа: Tracks+.CUE
Битрейт аудио: lossless
Продолжительность: 00:38:21


Треклист:
01. Передай другому (feat. М.Русин)
02. Капелька
03. Мой старый дом (стих.)
04. Детство (feat. О. Митяев)
05. Края моей раны (feat. Б.Рубекин)
06. Небо мое сердце
07. Мудак (feat. Е.Маргулис, Б.Плотников)
08. Инь и Янь (feat. Камерный Оркестр "Летания")
09. Пластинка (стих.)
10. Водокрут (feat. М.Русин)
11. Мама (feat. В.Кристовский)

Exact Audio Copy V1.6 from 23. October 2020 

EAC extraction logfile from 15. October 2021, 19:22

Павел Пиковский и Сергей «Чиж» Чиграков / Передай другому

Used drive : TS8XDVDSTRANSCEND Adapter: 1 ID: 0

Read mode : Secure
Utilize accurate stream : Yes
Defeat audio cache : Yes
Make use of C2 pointers : No

Read offset correction : 6
Overread into Lead-In and Lead-Out : No
Fill up missing offset samples with silence : Yes
Delete leading and trailing silent blocks : No
Null samples used in CRC calculations : Yes
Used interface : Native Win32 interface for Win NT & 2000
Gap handling : Appended to previous track

Used output format : User Defined Encoder
Selected bitrate : 768 kBit/s
Quality : High
Add ID3 tag : No
Command line compressor : C:\Program Files (x86)\Exact Audio Copy\FLAC\FLAC.EXE
Additional command line options : -8 -V -T "ARTIST=%artist%" -T "TITLE=%title%" -T "ALBUM=%albumtitle%" -T "DATE=%year%" -T "TRACKNUMBER=%tracknr%" -T "TOTALTRACKS=%numtracks%" -T "GENRE=%genre%" -T "COMMENT=Ripped by chaosman1986" %source% -o %dest%

TOC of the extracted CD

Track | Start | Length | Start sector | End sector
---------------------------------------------------------
1 | 0:00.00 | 2:56.74 | 0 | 13273
2 | 2:56.74 | 4:08.38 | 13274 | 31911
3 | 7:05.37 | 2:16.45 | 31912 | 42156
4 | 9:22.07 | 4:06.51 | 42157 | 60657
5 | 13:28.58 | 2:31.17 | 60658 | 71999
6 | 16:00.00 | 4:41.11 | 72000 | 93085
7 | 20:41.11 | 3:43.68 | 93086 | 109878
8 | 24:25.04 | 2:42.42 | 109879 | 122070
9 | 27:07.46 | 2:15.53 | 122071 | 132248
10 | 29:23.24 | 3:38.32 | 132249 | 148630
11 | 33:01.56 | 5:36.21 | 148631 | 173851

Track 1

Filename D:\Music\!МОИ РИПЫ\Чиж & Co\2021 - Передай другому (П. Пиковский и С. Чиграков)\01. Павел Пиковский и Сергей «Чиж» Чиграков feat. М. Русин - Передай другому.wav

Pre-gap length 0:00:02.00

Peak level 79.1 %
Extraction speed 2.8 X
Track quality 100.0 %
Test CRC 5EBF405C
Copy CRC 5EBF405C
Track not present in AccurateRip database
Copy OK

Track 2

Filename D:\Music\!МОИ РИПЫ\Чиж & Co\2021 - Передай другому (П. Пиковский и С. Чиграков)\02. Павел Пиковский и Сергей «Чиж» Чиграков - Капелька.wav

Peak level 99.9 %
Extraction speed 3.2 X
Track quality 100.0 %
Test CRC DC2D91C7
Copy CRC DC2D91C7
Track not present in AccurateRip database
Copy OK

Track 3

Filename D:\Music\!МОИ РИПЫ\Чиж & Co\2021 - Передай другому (П. Пиковский и С. Чиграков)\03. Павел Пиковский и Сергей «Чиж» Чиграков - Мой старый дом (стих.).wav

Peak level 99.9 %
Extraction speed 3.1 X
Track quality 100.0 %
Test CRC 10A7F818
Copy CRC 10A7F818
Track not present in AccurateRip database
Copy OK

Track 4

Filename D:\Music\!МОИ РИПЫ\Чиж & Co\2021 - Передай другому (П. Пиковский и С. Чиграков)\04. Павел Пиковский и Сергей «Чиж» Чиграков feat. О. Митяев - Детство.wav

Peak level 99.9 %
Extraction speed 3.1 X
Track quality 99.9 %
Test CRC 0E84AA3E
Copy CRC 0E84AA3E
Track not present in AccurateRip database
Copy OK

Track 5

Filename D:\Music\!МОИ РИПЫ\Чиж & Co\2021 - Передай другому (П. Пиковский и С. Чиграков)\05. Павел Пиковский и Сергей «Чиж» Чиграков feat. Б. Рубекин - Края моей раны.wav

Peak level 99.9 %
Extraction speed 3.5 X
Track quality 100.0 %
Test CRC 85A56F24
Copy CRC 85A56F24
Track not present in AccurateRip database
Copy OK

Track 6

Filename D:\Music\!МОИ РИПЫ\Чиж & Co\2021 - Передай другому (П. Пиковский и С. Чиграков)\06. Павел Пиковский и Сергей «Чиж» Чиграков - Небо моё сердце.wav

Peak level 99.9 %
Extraction speed 4.1 X
Track quality 100.0 %
Test CRC 3D706E30
Copy CRC 3D706E30
Track not present in AccurateRip database
Copy OK

Track 7

Filename D:\Music\!МОИ РИПЫ\Чиж & Co\2021 - Передай другому (П. Пиковский и С. Чиграков)\07. Павел Пиковский и Сергей «Чиж» Чиграков feat. Е. Маргулис, Б. Плотников - Мудак.wav

Peak level 99.9 %
Extraction speed 4.2 X
Track quality 100.0 %
Test CRC 00A6CE52
Copy CRC 00A6CE52
Track not present in AccurateRip database
Copy OK

Track 8

Filename D:\Music\!МОИ РИПЫ\Чиж & Co\2021 - Передай другому (П. Пиковский и С. Чиграков)\08. Павел Пиковский и Сергей «Чиж» Чиграков feat. Камерный Оркестр ''Летания'' - Инь и янь.wav

Peak level 94.4 %
Extraction speed 4.1 X
Track quality 100.0 %
Test CRC 5BFB7847
Copy CRC 5BFB7847
Track not present in AccurateRip database
Copy OK

Track 9

Filename D:\Music\!МОИ РИПЫ\Чиж & Co\2021 - Передай другому (П. Пиковский и С. Чиграков)\09. Павел Пиковский и Сергей «Чиж» Чиграков - Пластинка (стих.).wav

Peak level 99.9 %
Extraction speed 4.1 X
Track quality 100.0 %
Test CRC FB5EA952
Copy CRC FB5EA952
Track not present in AccurateRip database
Copy OK

Track 10

Filename D:\Music\!МОИ РИПЫ\Чиж & Co\2021 - Передай другому (П. Пиковский и С. Чиграков)\10. Павел Пиковский и Сергей «Чиж» Чиграков feat. М. Русин - Водокрут.wav

Peak level 99.9 %
Extraction speed 3.8 X
Track quality 99.9 %
Test CRC 8BED54B1
Copy CRC 8BED54B1
Track not present in AccurateRip database
Copy OK

Track 11

Filename D:\Music\!МОИ РИПЫ\Чиж & Co\2021 - Передай другому (П. Пиковский и С. Чиграков)\11. Павел Пиковский и Сергей «Чиж» Чиграков feat. В. Кристовский - Мама.wav

Peak level 94.4 %
Extraction speed 5.0 X
Track quality 100.0 %
Test CRC DBAA59B6
Copy CRC DBAA59B6
Track not present in AccurateRip database
Copy OK

None of the tracks are present in the AccurateRip database

No errors occurred

End of status report

---- AcoustID Plugin V1.2.0

Total fingerprints: 11

==== Log checksum A8D4F14EEF70988E4A186F6109A431640B65F1C217570D93935D6B30B0A19E0C ====
REM GENRE Rock 
REM DATE 2021
REM DISCID 9E090E0B
REM COMMENT "ExactAudioCopy v1.6"
PERFORMER "Павел Пиковский и Сергей «Чиж» Чиграков"
TITLE "Передай другому"
REM COMPOSER ""
FILE "01. Передай другому.flac" WAVE
TRACK 01 AUDIO
TITLE "Передай другому"
PERFORMER "Павел Пиковский и Сергей «Чиж» Чиграков feat. М. Русин"
REM COMPOSER ""
INDEX 01 00:00:00
FILE "02. Капелька.flac" WAVE
TRACK 02 AUDIO
TITLE "Капелька"
PERFORMER "Павел Пиковский и Сергей «Чиж» Чиграков"
REM COMPOSER ""
INDEX 01 00:00:00
FILE "03. Мой старый дом (стих.).flac" WAVE
TRACK 03 AUDIO
TITLE "Мой старый дом (стих.)"
PERFORMER "Павел Пиковский и Сергей «Чиж» Чиграков"
REM COMPOSER ""
INDEX 01 00:00:00
FILE "04. Детство.flac" WAVE
TRACK 04 AUDIO
TITLE "Детство"
PERFORMER "Павел Пиковский и Сергей «Чиж» Чиграков feat. О. Митяев"
REM COMPOSER ""
INDEX 01 00:00:00
FILE "05. Края моей раны.flac" WAVE
TRACK 05 AUDIO
TITLE "Края моей раны"
PERFORMER "Павел Пиковский и Сергей «Чиж» Чиграков feat. Б. Рубекин"
REM COMPOSER ""
INDEX 01 00:00:00
FILE "06. Небо моё сердце.flac" WAVE
TRACK 06 AUDIO
TITLE "Небо моё сердце"
PERFORMER "Павел Пиковский и Сергей «Чиж» Чиграков"
REM COMPOSER ""
INDEX 01 00:00:00
FILE "07. Мудак.flac" WAVE
TRACK 07 AUDIO
TITLE "Мудак"
PERFORMER "Павел Пиковский и Сергей «Чиж» Чиграков feat. Е. Маргулис, Б. Плотников"
REM COMPOSER ""
INDEX 01 00:00:00
FILE "08. Инь и янь.flac" WAVE
TRACK 08 AUDIO
TITLE "Инь и янь"
PERFORMER "Павел Пиковский и Сергей «Чиж» Чиграков feat. Камерный Оркестр 'Летания'"
REM COMPOSER ""
INDEX 01 00:00:00
FILE "09. Пластинка (стих.).flac" WAVE
TRACK 09 AUDIO
TITLE "Пластинка (стих.)"
PERFORMER "Павел Пиковский и Сергей «Чиж» Чиграков"
REM COMPOSER ""
INDEX 01 00:00:00
FILE "10. Водокрут.flac" WAVE
TRACK 10 AUDIO
TITLE "Водокрут"
PERFORMER "Павел Пиковский и Сергей «Чиж» Чиграков feat. М. Русин"
REM COMPOSER ""
INDEX 01 00:00:00
FILE "11. Мама.flac" WAVE
TRACK 11 AUDIO
TITLE "Мама"
PERFORMER "Павел Пиковский и Сергей «Чиж» Чиграков feat. В. Кристовский"
REM COMPOSER ""
INDEX 01 00:00:00

Этот торрент недоступен для скачивания без регистрации, однако доступен по публичной magnet-ссылке (источники с публичных трекеров). Перед использованием ссылки прочтите, пожалуйста Пользовательское соглашение, а также как можно дольше оставайтесь на раздаче! Для того, чтобы скачать сам торрент-файл (который видит больше источников), а также для того, чтобы поблагодарить релизера, вам необходимо зарегистрироваться. Если регистрироваться лень - вы можете также попробовать скачать релиз по нашим партнерским ссылкам ниже. Кроме того, зарегистрированным пользователям не показывается всплывающая реклама при скачивании.

[underver.se].t237143.torrent
Трекер: Зарегистрирован   [ 12.03.2022 13:06 ]  
Статус: проверено (by Бишеп at 12.03.2022 13:06)
Поблагодарили: пока никто не поблагодарил...
Тип торрента: публичный - доступные источники с открытых трекеров: 
Размер: 295 MB (занимает 0.07 DVDR, для записи нужно 1 болванка DVDR/RW)
 
 

Яндекс.Метрика powered by Sphinx


В Н И М А Н И Е
Сайт не распространяет и не хранит электронные версии произведений, а лишь бесплатно и без коммерческой выгоды (не требуя взамен платы,
SMS и т.д.) предоставляет доступ к создаваемому пользователями каталогу ссылок на торрент-файлы, которые содержат только списки хеш-сумм.
Убедительная просьба с жалобами обращаться напрямую к пользователю, разместившему торрент файл.

Вверх