Loading...
Error

(Pop, Hip-Hop, Rap) Stromae - Multitude [24-bit Hi-Res] (2022) [FLAC (tracks), Lossless]

Статистика раздачи
Размер:  475 MB   |    Зарегистрирован:  6 месяцев   |    Скачан:  2 раза

Полного источника не было: 16 дней

Сидов:  0  |  0 KB/s  ]   Личеров:  0  |  0 KB/s  ]

* - сиды/пиры с внешних источников

   
 
Автор Сообщение

Renesans Пол:Муж

12-Мар-2022 13:57

Stromae - Multitude [24-bit Hi-Res]


Год: 2022
Жанр: Pop, Hip-Hop, Rap
Страна: Belgium

Продолжительность: 00:35:42
Формат/Кодек: FLAC
Тип рипа: Tracks
Битрейт аудио: Lossless
Разрядность: 24 Bit/44.1 kHz
Носитель: WEB Qobuz
01. Invaincu
02. Sante
03. La Solassitude
04. Fils De Joie
05. L’enfer
06. C’est Que Du Bonheur
07. Pas Vraiment
08. Riez
09. Mon Amour
10. Declaration
11. Mauvaise Journee
12. Bonne Journee

DRM
foobar2000 1.6.8 / Замер динамического диапазона (DR) 1.1.1

--------------------------------------------------------------------------------
Анализ: Stromae / Multitude
--------------------------------------------------------------------------------

DR Пики RMS Продолжительность трека
--------------------------------------------------------------------------------
DR6 -0.80 дБ -8.65 дБ 2:06 01-Invaincu
DR7 -0.91 дБ -9.09 дБ 3:11 02-Sante
DR5 -0.80 дБ -8.48 дБ 3:02 03-La solassitude
DR8 -0.80 дБ -10.56 дБ 3:15 04-Fils de joie
DR7 -0.74 дБ -11.09 дБ 3:10 05-L’enfer
DR6 -0.93 дБ -8.13 дБ 2:42 06-C’est que du bonheur
DR6 -0.94 дБ -9.14 дБ 2:43 07-Pas vraiment
DR7 -0.40 дБ -9.42 дБ 3:21 08-Riez
DR6 -0.80 дБ -9.67 дБ 2:52 09-Mon amour
DR8 -0.44 дБ -9.88 дБ 3:05 10-Declaration
DR7 -0.93 дБ -9.37 дБ 3:08 11-Mauvaise journee
DR7 -0.93 дБ -9.99 дБ 3:12 12-Bonne journee
--------------------------------------------------------------------------------

Количество треков: 12
Реальные значения DR: DR7

Частота: 44100 Гц
Каналов: 2
Разрядность: 24
Битрейт: 1532 кбит/с
Кодек: FLAC
================================================================================

Этот торрент недоступен для скачивания без регистрации, однако доступен по публичной magnet-ссылке (источники с публичных трекеров). Перед использованием ссылки прочтите, пожалуйста Пользовательское соглашение, а также как можно дольше оставайтесь на раздаче! Для того, чтобы скачать сам торрент-файл (который видит больше источников), а также для того, чтобы поблагодарить релизера, вам необходимо зарегистрироваться. Если регистрироваться лень - вы можете также попробовать скачать релиз по нашим партнерским ссылкам ниже. Кроме того, зарегистрированным пользователям не показывается всплывающая реклама при скачивании.

[underver.se].t237146.torrent
Трекер: Зарегистрирован   [ 12.03.2022 13:57 ]  
Статус: проверено (by Renesans at 12.03.2022 13:57)
Поблагодарили: пока никто не поблагодарил...
Тип торрента: публичный - доступные источники с открытых трекеров: 
Размер: 475 MB (занимает 0.11 DVDR, для записи нужно 1 болванка DVDR/RW)
 
 

09-Сен-2022 18:48

Топик был перенесен из форума [HQ] Рэп, Хип-Хоп и Ритм-н-блюз Музыка в форум Зарубежный Rap, Hip-Hop (Lossless)


Бишеп
 

Яндекс.Метрика powered by Sphinx


В Н И М А Н И Е
Сайт не распространяет и не хранит электронные версии произведений, а лишь бесплатно и без коммерческой выгоды (не требуя взамен платы,
SMS и т.д.) предоставляет доступ к создаваемому пользователями каталогу ссылок на торрент-файлы, которые содержат только списки хеш-сумм.
Убедительная просьба с жалобами обращаться напрямую к пользователю, разместившему торрент файл.

Вверх