Loading...
Error

(Industrial Metal) Rammstein - Zeit (2022) [FLAC (Image+.cue), lossless]

Статистика раздачи
Размер:  343 MB   |    Зарегистрирован:  4 месяца 24 дня   |    Скачан:  12 раз
Сидов:  1  |  0 KB/s  ]   Личеров:  0  |  0 KB/s  ]

* - сиды/пиры с внешних источников

   
 
Автор Сообщение

garry Пол:Муж

03-Май-2022 14:45

Rammstein - Zeit

Жанр: Industrial Metal
Год выпуска: 2022
Носитель: CD
Производитель: Germany, Biem/Sorm | 0602445084999
Аудиокодек: FLAC
Тип рипа: Image+.cue
Битрейт: lossless
Продолжительность: 00:44:11

Треклист:

01. Armee Der Tristen (3:26)
02. Zeit (5:22)
03. Schwarz (4:18)
04. Giftig (3:08)
05. Zick Zack (4:04)
06. OK (4:04)
07. Meine Tranen (3:57)
08. Angst (3:45)
09. Dicke Titten (3:39)
10. Lugen (3:50)
11. Adieu (4:39)
 
Exact Audio Copy V1.5 from 20. February 2020

EAC extraction logfile from 27. April 2022, 13:00

Rammstein / Zeit [0602445084999]

Used drive : HL-DT-STBD-RE BH10LS38 Adapter: 1 ID: 0

Read mode : Secure
Utilize accurate stream : Yes
Defeat audio cache : Yes
Make use of C2 pointers : No

Read offset correction : 667
Overread into Lead-In and Lead-Out : No
Fill up missing offset samples with silence : Yes
Delete leading and trailing silent blocks : No
Null samples used in CRC calculations : Yes
Used interface : Native Win32 interface for Win NT & 2000

Used output format : User Defined Encoder
Selected bitrate : 128 kBit/s
Quality : High
Add ID3 tag : No
Command line compressor : C:\Program Files (x86)\Exact Audio Copy\Flac\flac.exe
Additional command line options : -V -8 -T "Date=%year%" -T "Genre=%genre%" %source%

TOC of the extracted CD

Track | Start | Length | Start sector | End sector
---------------------------------------------------------
1 | 0:00.00 | 3:25.44 | 0 | 15418
2 | 3:25.44 | 5:21.51 | 15419 | 39544
3 | 8:47.20 | 4:18.08 | 39545 | 58902
4 | 13:05.28 | 3:08.20 | 58903 | 73022
5 | 16:13.48 | 4:04.28 | 73023 | 91350
6 | 20:18.01 | 4:03.54 | 91351 | 109629
7 | 24:21.55 | 3:57.03 | 109630 | 127407
8 | 28:18.58 | 3:44.60 | 127408 | 144267
9 | 32:03.43 | 3:38.45 | 144268 | 160662
10 | 35:42.13 | 3:49.63 | 160663 | 177900
11 | 39:32.01 | 4:39.03 | 177901 | 198828

Range status and errors

Selected range

Filename D:\Rips by Alder\Rammstein - Zeit [0602445084999].wav

Peak level 97.9 %
Extraction speed 7.5 X
Range quality 99.9 %
Test CRC 4EE21311
Copy CRC 4EE21311
Copy OK

No errors occurred

AccurateRip summary

Track 1 not present in database
Track 2 not present in database
Track 3 not present in database
Track 4 not present in database
Track 5 not present in database
Track 6 not present in database
Track 7 not present in database
Track 8 not present in database
Track 9 not present in database
Track 10 not present in database
Track 11 not present in database

None of the tracks are present in the AccurateRip database

End of status report

---- CUETools DB Plugin V2.1.6

[CTDB TOCID: MaTIOk227nj0uDAdkLiD.V3uStw-] disk not present in database
Submit result: MaTIOk227nj0uDAdkLiD.V3uStw- has been uploaded

==== Log checksum 25CF429685B7B5B1CB0EA22755C5D40A59AE74C18CEA15A8DE35DE9D700794CF ====
 
REM GENRE Industrial
REM DATE 2022
REM DISCID 8D0A5B0B
REM COMMENT "ExactAudioCopy v1.5"
PERFORMER "Rammstein"
TITLE "Zeit [0602445084999]"
REM COMPOSER ""
FILE "Rammstein - Zeit [0602445084999].flac" WAVE
TRACK 01 AUDIO
TITLE "Armee Der Tristen"
PERFORMER "Rammstein"
REM COMPOSER ""
INDEX 01 00:00:00
TRACK 02 AUDIO
TITLE "Zeit"
PERFORMER "Rammstein"
REM COMPOSER ""
INDEX 01 03:25:44
TRACK 03 AUDIO
TITLE "Schwarz"
PERFORMER "Rammstein"
REM COMPOSER ""
INDEX 01 08:47:20
TRACK 04 AUDIO
TITLE "Giftig"
PERFORMER "Rammstein"
REM COMPOSER ""
INDEX 01 13:05:28
TRACK 05 AUDIO
TITLE "Zick Zack"
PERFORMER "Rammstein"
REM COMPOSER ""
INDEX 01 16:13:48
TRACK 06 AUDIO
TITLE "OK"
PERFORMER "Rammstein"
REM COMPOSER ""
INDEX 01 20:18:01
TRACK 07 AUDIO
TITLE "Meine Tranen"
PERFORMER "Rammstein"
REM COMPOSER ""
INDEX 01 24:21:55
TRACK 08 AUDIO
TITLE "Angst"
PERFORMER "Rammstein"
REM COMPOSER ""
INDEX 01 28:18:58
TRACK 09 AUDIO
TITLE "Dicke Titten"
PERFORMER "Rammstein"
REM COMPOSER ""
INDEX 01 32:03:43
TRACK 10 AUDIO
TITLE "Lugen"
PERFORMER "Rammstein"
REM COMPOSER ""
INDEX 01 35:42:13
TRACK 11 AUDIO
TITLE "Adieu"
PERFORMER "Rammstein"
REM COMPOSER ""
INDEX 01 39:32:01

Этот торрент недоступен для скачивания без регистрации, однако доступен по публичной magnet-ссылке (источники с публичных трекеров). Перед использованием ссылки прочтите, пожалуйста Пользовательское соглашение, а также как можно дольше оставайтесь на раздаче! Для того, чтобы скачать сам торрент-файл (который видит больше источников), а также для того, чтобы поблагодарить релизера, вам необходимо зарегистрироваться. Если регистрироваться лень - вы можете также попробовать скачать релиз по нашим партнерским ссылкам ниже. Кроме того, зарегистрированным пользователям не показывается всплывающая реклама при скачивании.

[underver.se].t241111.torrent
Трекер: Зарегистрирован   [ 03.05.2022 14:45 ]  
Статус: проверено (by garry at 03.05.2022 14:52)
Поблагодарили: 1 человек
Тип торрента: публичный - доступные источники с открытых трекеров: 
Размер: 343 MB (занимает 0.08 DVDR, для записи нужно 1 болванка DVDR/RW)
 
 

Яндекс.Метрика powered by Sphinx


В Н И М А Н И Е
Сайт не распространяет и не хранит электронные версии произведений, а лишь бесплатно и без коммерческой выгоды (не требуя взамен платы,
SMS и т.д.) предоставляет доступ к создаваемому пользователями каталогу ссылок на торрент-файлы, которые содержат только списки хеш-сумм.
Убедительная просьба с жалобами обращаться напрямую к пользователю, разместившему торрент файл.

Вверх