Loading...
Error

(Indie Rock, Garage Rock) The Black Keys - Dropout Boogie (2022) [FLAC (Tracks+.cue), lossless]

Статистика раздачи
Размер:  258 MB   |    Зарегистрирован:  3 месяца 6 дней   |    Скачан:  2 раза

Полного источника не было: 7 дней

Сидов:  0  |  0 KB/s  ]   Личеров:  0  |  0 KB/s  ]

* - сиды/пиры с внешних источников

   
 
Автор Сообщение

garry Пол:Муж

13-Май-2022 07:50

The Black Keys - Dropout Boogie

Жанр: Indie Rock, Garage Rock
Год выпуска: 2022
Носитель: CD
Производитель: USA
Аудиокодек: FLAC
Тип рипа: Tracks+.cue
Битрейт: lossless
Продолжительность: 00:33:55

Треклист:

01. Wild Child
02. It Ain't Over
03. For The Love Of Money
04. Your Team Is Looking Good
05. Good Love (feat. Billy F Gibbons of ZZ Top)
06. How Long
07. Burn The Damn Thing Down
08. Happiness
09. Baby I'm Coming Home
10. Didn't I Love You
 
Exact Audio Copy V1.3 from 2. September 2016

EAC extraction logfile from 3. June 2022, 10:17

The Black Keys / Dropout Boogie

Used drive : HL-DT-STDVDRAM GH22LS50 Adapter: 1 ID: 1

Read mode : Secure
Utilize accurate stream : Yes
Defeat audio cache : Yes
Make use of C2 pointers : No

Read offset correction : 667
Overread into Lead-In and Lead-Out : No
Fill up missing offset samples with silence : Yes
Delete leading and trailing silent blocks : No
Null samples used in CRC calculations : Yes
Used interface : Native Win32 interface for Win NT & 2000
Gap handling : Appended to previous track

Used output format : User Defined Encoder
Selected bitrate : 1024 kBit/s
Quality : High
Add ID3 tag : No
Command line compressor : C:\Program Files (x86)\Exact Audio Copy\Flac\flac.exe
Additional command line options : -8 -V -T "ARTIST=%artist%" -T "TITLE=%title%" -T "ALBUM=%albumtitle%" -T "DATE=%year%" -T "TRACKNUMBER=%tracknr%" -T "TOTALTRACKS=%numtracks%" -T "GENRE=%genre%" -T "ALBUMARTIST=%albumartist%" -T "ALBUM ARTIST=%albumartist%" -T "COMMENT=EAC Secure Mode, Test & Copy, AccurateRip, FLAC -8" %source%

TOC of the extracted CD

Track | Start | Length | Start sector | End sector
---------------------------------------------------------
1 | 0:00.00 | 2:44.65 | 0 | 12364
2 | 2:44.65 | 3:48.40 | 12365 | 29504
3 | 6:33.30 | 3:31.15 | 29505 | 45344
4 | 10:04.45 | 3:05.09 | 45345 | 59228
5 | 13:09.54 | 3:37.48 | 59229 | 75551
6 | 16:47.27 | 3:20.74 | 75552 | 90625
7 | 20:08.26 | 2:57.37 | 90626 | 103937
8 | 23:05.63 | 3:44.36 | 103938 | 120773
9 | 26:50.24 | 3:08.63 | 120774 | 134936
10 | 29:59.12 | 4:01.73 | 134937 | 153084

Track 1

Filename F:\01 - Wild Child.wav

Pre-gap length 0:00:02.00

Peak level 100.0 %
Extraction speed 3.9 X
Track quality 100.0 %
Test CRC 5110627F
Copy CRC 5110627F
Track not present in AccurateRip database
Copy OK

Track 2

Filename F:\02 - It Ain't Over.wav

Peak level 99.4 %
Extraction speed 4.6 X
Track quality 100.0 %
Test CRC 77D3C885
Copy CRC 77D3C885
Track not present in AccurateRip database
Copy OK

Track 3

Filename F:\03 - For The Love Of Money.wav

Peak level 98.9 %
Extraction speed 4.9 X
Track quality 100.0 %
Test CRC 6B5BD9D8
Copy CRC 6B5BD9D8
Track not present in AccurateRip database
Copy OK

Track 4

Filename F:\04 - Your Team Is Looking Good.wav

Peak level 99.6 %
Extraction speed 4.8 X
Track quality 100.0 %
Test CRC 75D2160B
Copy CRC 75D2160B
Track not present in AccurateRip database
Copy OK

Track 5

Filename F:\05 - Good Love.wav

Peak level 99.5 %
Extraction speed 5.2 X
Track quality 100.0 %
Test CRC A320B670
Copy CRC A320B670
Track not present in AccurateRip database
Copy OK

Track 6

Filename F:\06 - How Long.wav

Peak level 98.9 %
Extraction speed 5.6 X
Track quality 100.0 %
Test CRC FD97C819
Copy CRC FD97C819
Track not present in AccurateRip database
Copy OK

Track 7

Filename F:\07 - Burn The Damn Thing Down.wav

Peak level 99.2 %
Extraction speed 5.5 X
Track quality 100.0 %
Test CRC E92B20D9
Copy CRC E92B20D9
Track not present in AccurateRip database
Copy OK

Track 8

Filename F:\08 - Happiness.wav

Peak level 100.0 %
Extraction speed 6.0 X
Track quality 100.0 %
Test CRC 6F98EC8F
Copy CRC 6F98EC8F
Track not present in AccurateRip database
Copy OK

Track 9

Filename F:\09 - Baby I'm Coming Home.wav

Peak level 100.0 %
Extraction speed 5.8 X
Track quality 100.0 %
Test CRC F8E0F7C3
Copy CRC F8E0F7C3
Track not present in AccurateRip database
Copy OK

Track 10

Filename F:\10 - Didn't I Love You.wav

Peak level 99.7 %
Extraction speed 6.5 X
Track quality 100.0 %
Test CRC 5A4A56B1
Copy CRC 5A4A56B1
Track not present in AccurateRip database
Copy OK

None of the tracks are present in the AccurateRip database

No errors occurred

End of status report

---- CUETools DB Plugin V2.1.6

[CTDB TOCID: sziVXiP.ct5WbNl10seceI.TQUY-] found
Submit result: sziVXiP.ct5WbNl10seceI.TQUY- has been confirmed
Track | CTDB Status
1 | (105/105) Accurately ripped
2 | (105/105) Accurately ripped
3 | (105/105) Accurately ripped
4 | (105/105) Accurately ripped
5 | (103/105) Accurately ripped
6 | (105/105) Accurately ripped
7 | (105/105) Accurately ripped
8 | (105/105) Accurately ripped
9 | (105/105) Accurately ripped
10 | (103/105) Accurately ripped, or (2/105) differs in 4042 samples @04:01:50-04:01:57

==== Log checksum 38E5BBE3F75F1CB87B7500A93398EABDCF7B45F0FEB0B28AFC1AC97275ADB98E ====
 
REM GENRE Rock
REM DATE 2022
REM DISCID 7207F90A
REM COMMENT "ExactAudioCopy v1.3"
PERFORMER "The Black Keys"
TITLE "Dropout Boogie"
REM COMPOSER ""
FILE "01 - Wild Child.wav" WAVE
TRACK 01 AUDIO
TITLE "Wild Child"
PERFORMER "The Black Keys"
REM COMPOSER ""
INDEX 01 00:00:00
FILE "02 - It Ain't Over.wav" WAVE
TRACK 02 AUDIO
TITLE "It Ain't Over"
PERFORMER "The Black Keys"
REM COMPOSER ""
INDEX 01 00:00:00
FILE "03 - For The Love Of Money.wav" WAVE
TRACK 03 AUDIO
TITLE "For The Love Of Money"
PERFORMER "The Black Keys"
REM COMPOSER ""
INDEX 01 00:00:00
FILE "04 - Your Team Is Looking Good.wav" WAVE
TRACK 04 AUDIO
TITLE "Your Team Is Looking Good"
PERFORMER "The Black Keys"
REM COMPOSER ""
INDEX 01 00:00:00
FILE "05 - Good Love.wav" WAVE
TRACK 05 AUDIO
TITLE "Good Love"
PERFORMER "The Black Keys"
REM COMPOSER ""
INDEX 01 00:00:00
FILE "06 - How Long.wav" WAVE
TRACK 06 AUDIO
TITLE "How Long"
PERFORMER "The Black Keys"
REM COMPOSER ""
INDEX 01 00:00:00
FILE "07 - Burn The Damn Thing Down.wav" WAVE
TRACK 07 AUDIO
TITLE "Burn The Damn Thing Down"
PERFORMER "The Black Keys"
REM COMPOSER ""
INDEX 01 00:00:00
FILE "08 - Happiness.wav" WAVE
TRACK 08 AUDIO
TITLE "Happiness"
PERFORMER "The Black Keys"
REM COMPOSER ""
INDEX 01 00:00:00
FILE "09 - Baby I'm Coming Home.wav" WAVE
TRACK 09 AUDIO
TITLE "Baby I'm Coming Home"
PERFORMER "The Black Keys"
REM COMPOSER ""
INDEX 01 00:00:00
FILE "10 - Didn't I Love You.wav" WAVE
TRACK 10 AUDIO
TITLE "Didn't I Love You"
PERFORMER "The Black Keys"
REM COMPOSER ""
INDEX 01 00:00:00

Этот торрент недоступен для скачивания без регистрации, однако доступен по публичной magnet-ссылке (источники с публичных трекеров). Перед использованием ссылки прочтите, пожалуйста Пользовательское соглашение, а также как можно дольше оставайтесь на раздаче! Для того, чтобы скачать сам торрент-файл (который видит больше источников), а также для того, чтобы поблагодарить релизера, вам необходимо зарегистрироваться. Если регистрироваться лень - вы можете также попробовать скачать релиз по нашим партнерским ссылкам ниже. Кроме того, зарегистрированным пользователям не показывается всплывающая реклама при скачивании.

[underver.se].t241704.torrent
Трекер: Зарегистрирован   [ 21.06.2022 15:17 ]  
Статус: проверено (by garry at 21.06.2022 15:18)
Поблагодарили: пока никто не поблагодарил...
Тип торрента: публичный - доступные источники с открытых трекеров: 
Размер: 258 MB (занимает 0.06 DVDR, для записи нужно 1 болванка DVDR/RW)
 
 


Последний раз редактировалось: garry (21.06.2022 15:17), всего редактировалось 1 раз

garry Пол:Муж

13-Май-2022 07:51

Цитата:

T временная
Scene-рип с CD.

garry Пол:Муж

21-Июн-2022 15:18

замена на Tracks+.cue

Яндекс.Метрика powered by Sphinx


В Н И М А Н И Е
Сайт не распространяет и не хранит электронные версии произведений, а лишь бесплатно и без коммерческой выгоды (не требуя взамен платы,
SMS и т.д.) предоставляет доступ к создаваемому пользователями каталогу ссылок на торрент-файлы, которые содержат только списки хеш-сумм.
Убедительная просьба с жалобами обращаться напрямую к пользователю, разместившему торрент файл.

Вверх