Loading...
Error

(Melodic Heavy, Power Metal) Beast In Black - Dark Connection (2021) [FLAC (Image+.cue), lossless]

Статистика раздачи
Размер:  455 MB   |    Зарегистрирован:  3 месяца 20 дней   |    Скачан:  5 раз

Полного источника не было: 7 часов

Сидов:  0  |  0 KB/s  ]   Личеров:  0  |  0 KB/s  ]

* - сиды/пиры с внешних источников

   
 
Автор Сообщение

sergej644 Пол:Муж

07-Июн-2022 10:30

Beast In Black - Dark Connection

Жанр: Melodic Heavy, Power Metal
Год выпуска: 2021
Носитель: CD
Производитель: Ward
Аудиокодек: FLAC
Тип рипа: Image+.cue
Битрейт: lossless
Продолжительность: 00:59:47


01. Blade Runner (4:10)
02. Bella Donna (3:55)
03. Highway to Mars (5:16)
04. Hardcore (3:37)
05. One Night in Tokyo (3:09)
06. Moonlight Rendezvous (5:42)
07. Revengeance Machine (4:10)
08. Dark New World (4:00)
09. To the Last Drop of Blood (3:58)
10. Broken Survivors (4:28)
11. My Dystopia (5:56)
12. Battle Hymn (6:57)
13. They Don’t Care About Us (4:36)
Exact Audio Copy V1.5 from 20. February 2020 

EAC extraction logfile from 3. December 2021, 20:01

Beast in Black / Dark Connection (GQSC-91103)

Used drive : TSSTcorpDVDWBD SH-B123L Adapter: 1 ID: 1

Read mode : Secure
Utilize accurate stream : Yes
Defeat audio cache : Yes
Make use of C2 pointers : No

Read offset correction : 6
Overread into Lead-In and Lead-Out : No
Fill up missing offset samples with silence : Yes
Delete leading and trailing silent blocks : No
Null samples used in CRC calculations : Yes
Used interface : Native Win32 interface for Win NT & 2000

Used output format : User Defined Encoder
Selected bitrate : 896 kBit/s
Quality : High
Add ID3 tag : No
Command line compressor : C:\Program Files (x86)\Exact Audio Copy\FLAC\FLAC.EXE
Additional command line options : -6 -V -T "ARTIST=%artist%" -T "TITLE=%title%" -T "ALBUM=%albumtitle%" -T "DATE=%year%" -T "TRACKNUMBER=%tracknr%" -T "GENRE=%genre%" -T "COMMENT=%comment%" -T "BAND=%albuminterpret%" -T "ALBUMARTIST=%albuminterpret%" -T "COMPOSER=%composer%" %haslyrics%--tag-from-file=LYRICS="%lyricsfile%"%haslyrics% -T "DISCNUMBER=%cdnumber%" -T "TOTALDISCS=%totalcds%" -T "TOTALTRACKS=%numtracks%" %hascover%--picture="%coverfile%"%hascover% %source% -o %dest%

TOC of the extracted CD

Track | Start | Length | Start sector | End sector
---------------------------------------------------------
1 | 0:00.00 | 4:09.08 | 0 | 18682
2 | 4:09.08 | 3:54.32 | 18683 | 36264
3 | 8:03.40 | 5:15.55 | 36265 | 59944
4 | 13:19.20 | 3:36.06 | 59945 | 76150
5 | 16:55.26 | 3:08.44 | 76151 | 90294
6 | 20:03.70 | 5:41.07 | 90295 | 115876
7 | 25:45.02 | 4:09.60 | 115877 | 134611
8 | 29:54.62 | 3:59.70 | 134612 | 152606
9 | 33:54.57 | 3:57.23 | 152607 | 170404
10 | 37:52.05 | 4:27.01 | 170405 | 190430
11 | 42:19.06 | 5:55.62 | 190431 | 217117
12 | 48:14.68 | 6:56.32 | 217118 | 248349
13 | 55:11.25 | 4:35.09 | 248350 | 268983

Range status and errors

Selected range

Filename E:\MUSIC\Beast in Black - Dark Connection (GQSC-91103).wav

Peak level 98.2 %
Extraction speed 7.5 X
Range quality 100.0 %
Test CRC B3F89A1A
Copy CRC B3F89A1A
Copy OK

No errors occurred

AccurateRip summary
Track 1 not present in database
Track 2 not present in database
Track 3 not present in database
Track 4 not present in database
Track 5 not present in database
Track 6 not present in database
Track 7 not present in database
Track 8 not present in database
Track 9 not present in database
Track 10 not present in database
Track 11 not present in database
Track 12 not present in database
Track 13 not present in database
None of the tracks are present in the AccurateRip database

End of status report
REM GENRE "Heavy\Power Metal" 
REM DATE 2021
REM DISCID A60E020D
REM COMMENT "ExactAudioCopy v1.5"
PERFORMER "Beast in Black"
TITLE "Dark Connection (GQSC-91103)"
REM COMPOSER ""
FILE "Beast in Black - Dark Connection (GQSC-91103).flac" WAVE
TRACK 01 AUDIO
TITLE "Blade Runner"
PERFORMER "Beast in Black"
REM COMPOSER ""
INDEX 01 00:00:00
TRACK 02 AUDIO
TITLE "Bella Donna"
PERFORMER "Beast in Black"
REM COMPOSER ""
INDEX 00 04:07:27
INDEX 01 04:09:08
TRACK 03 AUDIO
TITLE "Highway to Mars"
PERFORMER "Beast in Black"
REM COMPOSER ""
INDEX 00 08:01:59
INDEX 01 08:03:40
TRACK 04 AUDIO
TITLE "Hardcore"
PERFORMER "Beast in Black"
REM COMPOSER ""
INDEX 00 13:17:39
INDEX 01 13:19:20
TRACK 05 AUDIO
TITLE "One Night in Tokyo"
PERFORMER "Beast in Black"
REM COMPOSER ""
INDEX 00 16:53:45
INDEX 01 16:55:26
TRACK 06 AUDIO
TITLE "Moonlight Rendezvous"
PERFORMER "Beast in Black"
REM COMPOSER ""
INDEX 00 20:02:14
INDEX 01 20:03:70
TRACK 07 AUDIO
TITLE "Revengeance Machine"
PERFORMER "Beast in Black"
REM COMPOSER ""
INDEX 00 25:43:21
INDEX 01 25:45:02
TRACK 08 AUDIO
TITLE "Dark New World"
PERFORMER "Beast in Black"
REM COMPOSER ""
INDEX 00 29:53:06
INDEX 01 29:54:62
TRACK 09 AUDIO
TITLE "To the Last Drop of Blood"
PERFORMER "Beast in Black"
REM COMPOSER ""
INDEX 00 33:53:01
INDEX 01 33:54:57
TRACK 10 AUDIO
TITLE "Broken Survivors"
PERFORMER "Beast in Black"
REM COMPOSER ""
INDEX 00 37:50:24
INDEX 01 37:52:05
TRACK 11 AUDIO
TITLE "My Dystopia"
PERFORMER "Beast in Black"
REM COMPOSER ""
INDEX 00 42:17:25
INDEX 01 42:19:06
TRACK 12 AUDIO
TITLE "Battle Hymn"
PERFORMER "Beast in Black"
REM COMPOSER ""
INDEX 00 48:11:23
INDEX 01 48:14:68
TRACK 13 AUDIO
TITLE "They Don’t Care About Us"
PERFORMER "Beast in Black"
REM COMPOSER ""
INDEX 00 55:09:44
INDEX 01 55:11:25

Этот торрент недоступен для скачивания без регистрации, однако доступен по публичной magnet-ссылке (источники с публичных трекеров). Перед использованием ссылки прочтите, пожалуйста Пользовательское соглашение, а также как можно дольше оставайтесь на раздаче! Для того, чтобы скачать сам торрент-файл (который видит больше источников), а также для того, чтобы поблагодарить релизера, вам необходимо зарегистрироваться. Если регистрироваться лень - вы можете также попробовать скачать релиз по нашим партнерским ссылкам ниже. Кроме того, зарегистрированным пользователям не показывается всплывающая реклама при скачивании.

[underver.se].t242987.torrent
Трекер: Зарегистрирован   [ 07.06.2022 10:30 ]  
Статус: проверено (by Robbertta at 07.06.2022 11:21)
Поблагодарили: пока никто не поблагодарил...
Тип торрента: публичный - доступные источники с открытых трекеров: 
Размер: 455 MB (занимает 0.1 DVDR, для записи нужно 1 болванка DVDR/RW)
 
 

Яндекс.Метрика powered by Sphinx


В Н И М А Н И Е
Сайт не распространяет и не хранит электронные версии произведений, а лишь бесплатно и без коммерческой выгоды (не требуя взамен платы,
SMS и т.д.) предоставляет доступ к создаваемому пользователями каталогу ссылок на торрент-файлы, которые содержат только списки хеш-сумм.
Убедительная просьба с жалобами обращаться напрямую к пользователю, разместившему торрент файл.

Вверх