Loading...
Error

Непокоренный / Invictus (Клинт Иствуд) [2009 г., Драма, спорт, история, биография, BDRip 1080p] 2хDub + Original

Статистика раздачи
Размер:  16.94 GB   |    Зарегистрирован:  1 месяц 13 дней   |    Скачан:  1 раз

Полного источника не было: 1 месяц 6 дней

Сидов:  0  |  0 KB/s  ]   Личеров:  0  |  0 KB/s  ]

* - сиды/пиры с внешних источников

   
 
Автор Сообщение

Evgenii82 Пол:Муж

14-Авг-2022 14:02

Непокоренный / Invictus


Год выпуска: 2009
Жанр: Драма, спорт, история, биография
Страна: США
Режиссер: Клинт Иствуд
В ролях: Морган Фримен, Мэтт Дэймон, Тони Кгороге, Патрик Мофокенг, Мэтт Штерн, Джулиан Льюис Джонс, Аджоа Андо, Маргарит Уитли, Лелети Кумало, Патрик Листер
Сюжет фильма:
Фильм о времени после падения апартеида, когда Южная Африка провела у себя Кубок мира по регби 1995 года. Тогда шел первый президентский срок Нельсона Манделы, который пытался использовать все возможности, чтобы прекратить многолетнее непонимание между белым и чернокожим населением страны.


Качество видео: BDRip 1080p

Продолжительность: 02:13:38
Формат: MKV
Видео: MPEG-4 AVC, 1920x800, 14.5 Мбит/с
Аудио #1: русский, дублированный [лицензия], DTS 5.1, 1536 кбит/с
Аудио #2: русский, дублированный [лицензия], AC3 5.1, 640 кбит/с
Аудио #3: английский, оригинал, DTS 5.1, 1536 кбит/с
Субтитры #1: тип: вшитые отключаемые, русский,
Субтитры #2: тип: вшитые отключаемые, английский,

Код:

General
Unique ID                      : 254165214243667108394810599104806448220 (0xBF36708FBE4412C49E4E5DA70FA4EC5C)
Complete name                  : G:\Invictus.2009.BluRay.1080p.DTS.x264.Rus.Eng  .mkv
Format                         : Matroska
Format version                 : Version 4
File size                      : 16.9 GiB
Duration                       : 2 h 13 min
Overall bit rate               : 18.1 Mb/s
Encoded date                   : UTC 2016-07-09 13:54:07
Writing application            : mkvmerge v9.2.0 ('Photograph') 64bit
Writing library                : libebml v1.3.3 + libmatroska v1.4.4

Video
ID                             : 1
Format                         : AVC
Format/Info                    : Advanced Video Codec
Format profile                 : [email protected]
Format settings                : CABAC / 4 Ref Frames
Format settings, CABAC         : Yes
Format settings, Reference fra : 4 frames
Codec ID                       : V_MPEG4/ISO/AVC
Duration                       : 2 h 13 min
Bit rate                       : 14.5 Mb/s
Width                          : 1 920 pixels
Height                         : 800 pixels
Display aspect ratio           : 2.40:1
Frame rate mode                : Constant
Frame rate                     : 23.976 FPS
Color space                    : YUV
Chroma subsampling             : 4:2:0
Bit depth                      : 8 bits
Scan type                      : Progressive
Bits/(Pixel*Frame)             : 0.394
Stream size                    : 13.5 GiB (80%)
Writing library                : x264 core 88 r1471 1144615
Encoding settings              : cabac=1 / ref=4 / deblock=1:-3:-3 / analyse=0x3:0x113 / me=umh / subme=10 / psy=1 / psy_rd=1.05:0.10 / mixed_ref=1 / me_range=64 / chroma_me=1 / trellis=2 / 8x8dct=1 / cqm=0 / deadzone=21,11 / fast_pskip=0 / chroma_qp_offset=-2 / threads=12 / sliced_threads=0 / nr=0 / decimate=1 / mbaff=0 / constrained_intra=0 / bframes=3 / b_pyramid=2 / b_adapt=2 / b_bias=0 / direct=3 / wpredb=1 / wpredp=2 / keyint=250 / keyint_min=25 / scenecut=40 / intra_refresh=0 / rc_lookahead=50 / rc=2pass / mbtree=1 / bitrate=14500 / ratetol=2.0 / qcomp=0.70 / qpmin=10 / qpmax=51 / qpstep=4 / cplxblur=20.0 / qblur=0.5 / vbv_maxrate=50000 / vbv_bufsize=50000 / ip_ratio=1.40 / aq=1:1.00
Language                       : English
Default                        : Yes
Forced                         : No

Audio #1
ID                             : 2
Format                         : DTS
Format/Info                    : Digital Theater Systems
Codec ID                       : A_DTS
Duration                       : 2 h 13 min
Bit rate mode                  : Constant
Bit rate                       : 1 509 kb/s
Channel(s)                     : 6 channels
Channel layout                 : C L R Ls Rs LFE
Sampling rate                  : 48.0 kHz
Frame rate                     : 93.750 FPS (512 SPF)
Bit depth                      : 24 bits
Compression mode               : Lossy
Stream size                    : 1.41 GiB (8%)
Title                          : Лицензия
Language                       : Russian
Default                        : Yes
Forced                         : No

Audio #2
ID                             : 3
Format                         : AC-3
Format/Info                    : Audio Coding 3
Commercial name                : Dolby Digital
Codec ID                       : A_AC3
Duration                       : 2 h 13 min
Bit rate mode                  : Constant
Bit rate                       : 640 kb/s
Channel(s)                     : 6 channels
Channel layout                 : L R C LFE Ls Rs
Sampling rate                  : 48.0 kHz
Frame rate                     : 31.250 FPS (1536 SPF)
Compression mode               : Lossy
Stream size                    : 610 MiB (4%)
Title                          : Лицензия
Language                       : Russian
Service kind                   : Complete Main
Default                        : No
Forced                         : No

Audio #3
ID                             : 4
Format                         : DTS
Format/Info                    : Digital Theater Systems
Codec ID                       : A_DTS
Duration                       : 2 h 13 min
Bit rate mode                  : Constant
Bit rate                       : 1 509 kb/s
Channel(s)                     : 6 channels
Channel layout                 : C L R Ls Rs LFE
Sampling rate                  : 48.0 kHz
Frame rate                     : 93.750 FPS (512 SPF)
Bit depth                      : 24 bits
Compression mode               : Lossy
Stream size                    : 1.41 GiB (8%)
Language                       : English
Default                        : No
Forced                         : No

Text #1
ID                             : 5
Format                         : UTF-8
Codec ID                       : S_TEXT/UTF8
Codec ID/Info                  : UTF-8 Plain Text
Duration                       : 2 h 12 min
Bit rate                       : 78 b/s
Frame rate                     : 0.167 FPS
Count of elements              : 1325
Stream size                    : 76.2 KiB (0%)
Language                       : Russian
Default                        : No
Forced                         : No

Text #2
ID                             : 6
Format                         : UTF-8
Codec ID                       : S_TEXT/UTF8
Codec ID/Info                  : UTF-8 Plain Text
Duration                       : 2 h 5 min
Bit rate                       : 50 b/s
Frame rate                     : 0.171 FPS
Count of elements              : 1292
Stream size                    : 46.8 KiB (0%)
Language                       : English
Default                        : No
Forced                         : No

Menu
00:00:00.000                   : en:Chapter 1
00:11:16.967                   : en:Chapter 2
00:20:01.450                   : en:Chapter 3
00:30:09.474                   : en:Chapter 4
00:39:21.609                   : en:Chapter 5
00:48:57.643                   : en:Chapter 6
00:59:03.414                   : en:Chapter 7
01:08:57.883                   : en:Chapter 8
01:17:35.108                   : en:Chapter 9
01:28:36.185                   : en:Chapter 10
01:40:47.791                   : en:Chapter 11
01:50:55.857                   : en:Chapter 12
02:00:53.579                   : en:Chapter 13
02:10:13.555                   : en:Chapter 14
02:12:49.920                   : en:Chapter 15

Этот торрент недоступен для скачивания без регистрации, однако доступен по публичной magnet-ссылке (источники с публичных трекеров). Перед использованием ссылки прочтите, пожалуйста Пользовательское соглашение, а также как можно дольше оставайтесь на раздаче! Для того, чтобы скачать сам торрент-файл (который видит больше источников), а также для того, чтобы поблагодарить релизера, вам необходимо зарегистрироваться. Если регистрироваться лень - вы можете также попробовать скачать релиз по нашим партнерским ссылкам ниже. Кроме того, зарегистрированным пользователям не показывается всплывающая реклама при скачивании.

[underver.se].t245374.torrent
Трекер: Зарегистрирован   [ 14.08.2022 14:02 ]  
Статус: проверено (by Evgenii82 at 14.08.2022 14:03)
Поблагодарили: пока никто не поблагодарил...
Тип торрента: публичный - доступные источники с открытых трекеров: 
Размер: 16.94 GB (занимает 3.87 DVDR, для записи нужно 4 болванки DVDR/RW)
 
 

Яндекс.Метрика powered by Sphinx


В Н И М А Н И Е
Сайт не распространяет и не хранит электронные версии произведений, а лишь бесплатно и без коммерческой выгоды (не требуя взамен платы,
SMS и т.д.) предоставляет доступ к создаваемому пользователями каталогу ссылок на торрент-файлы, которые содержат только списки хеш-сумм.
Убедительная просьба с жалобами обращаться напрямую к пользователю, разместившему торрент файл.

Вверх