Loading...
Error

Свадебный сезон / Wedding Season (Том Дей) [2022 г., мелодрама, комедия, WEB-DLRip-AVC] MVO (Pazl Voice) + Original (Eng) + Sub (Rus)

Статистика раздачи
Размер:  1.79 GB   |    Зарегистрирован:  1 месяц 19 дней   |    Скачан:  8 раз

Полного источника не было: 21 день

Сидов:  0  |  0 KB/s  ]   Личеров:  0  |  0 KB/s  ]

* - сиды/пиры с внешних источников

   
 
Автор Сообщение

Renesans Пол:Муж

14-Авг-2022 15:07

Свадебный сезон / Wedding Season


Название: Свадебный сезон
Оригинальное название: Wedding Season
Год выхода: 2022
Жанр: мелодрама, комедия

Режиссер-постановщик: Том Дей
В фильме снимались: Паллави Шарда, Сурадж Шарма, Арианна Афсар, Шон Клайар, Вина Суд, Ризван Манжи, Рут Гудвин, Дэмиэн Томпсон, Маной Суд, Субхаш Сантош

Описание:
Родители настаивают, чтобы Аша и Рави нашли себе супругов. Девушка и юноша все лето притворяются парой, но вопреки их плану постепенно между ними возникают чувства.



Страна: США
Студия: Imagine Entertainment, Jax Media, Samosa Stories, Wildling Pictures
Продолжительность: 01:39:25
Перевод: Любительский (двухголосый закадровый) | Pazl Voice
Субтитры: Русские, английские, украинские

Формат: Matroska
Качество: WEB-DLRip-AVC
Видео: 1024x428 at 23.976 fps, [email protected], ~1810 kbps
Аудио 1: AC3, 6 ch, ~384 kbps - | Русский |
Аудио 2: AC3, 6 ch, ~384 kbps - | Английский |
Формат субтитров: softsub (SRT)

***Рип от: -=DoMiNo=-

x264 [info]: frame I:1743 Avg QP:16.48 size: 61500
x264 [info]: frame P:30647 Avg QP:18.60 size: 21141
x264 [info]: frame B:110620 Avg QP:20.87 size: 5374
x264 [info]: consecutive B-frames: 2.3% 2.7% 8.9% 16.3% 14.7% 51.6% 0.8% 0.3% 0.4% 0.4% 0.3% 0.5%

General
Unique ID : 97482954643981423764534432980531487944 (0x495688BD814F9166A5E6BE7C6EA524C8)
Complete name : D:Wedding.Season.2022.WEB-DLRip.x264.mkv
Format : Matroska
Format version : Version 4
File size : 1.79 GiB
Duration : 1 h 39 min
Overall bit rate : 2 581 kb/s
Movie name : Wedding.Season.2022.WEB-DLRip.x264
Encoded date : UTC 2022-08-14 13:14:18
Writing application : mkvmerge v70.0.0 ('Caught A Lite Sneeze') 64-bit
Writing library : libebml v1.4.2 + libmatroska v1.6.4
Cover : Yes
Attachments : cover.jpg / small_cover.jpg

Video
ID : 1
Format : AVC
Format/Info : Advanced Video Codec
Format profile : [email protected]
Format settings : CABAC / 12 Ref Frames
Format settings, CABAC : Yes
Format settings, Reference : 12 frames
Codec ID : V_MPEG4/ISO/AVC
Duration : 1 h 39 min
Bit rate : 1 810 kb/s
Width : 1 024 pixels
Height : 428 pixels
Display aspect ratio : 2.40:1
Frame rate mode : Constant
Frame rate : 23.976 (24000/1001) FPS
Color space : YUV
Chroma subsampling : 4:2:0
Bit depth : 8 bits
Scan type : Progressive
Bits/(Pixel*Frame) : 0.172
Stream size : 1.26 GiB (70%)
Title : -=DoMiNo=-
Writing library : x264 core 164 by -=DoMiNo=-
Encoding settings : cabac=1 / ref=12 / deblock=1:-3:-3 / analyse=0x3:0x133 / me=umh / subme=10 / psy=1 / psy_rd=1.02:0.05 / mixed_ref=1 / me_range=32 / chroma_me=1 / trellis=2 / 8x8dct=1 / cqm=0 / deadzone=21,11 / fast_pskip=0 / chroma_qp_offset=-3 / threads=17 / lookahead_threads=3 / sliced_threads=0 / nr=0 / decimate=0 / interlaced=0 / bluray_compat=0 / constrained_intra=0 / bframes=11 / b_pyramid=2 / b_adapt=2 / b_bias=0 / direct=1 / weightb=1 / open_gop=0 / weightp=2 / keyint=250 / keyint_min=23 / scenecut=40 / intra_refresh=0 / rc_lookahead=60 / rc=crf / mbtree=0 / crf=18.0 / qcomp=0.65 / qpmin=0 / qpmax=69 / qpstep=4 / vbv_maxrate=50000 / vbv_bufsize=62500 / crf_max=0.0 / nal_hrd=none / filler=0 / ip_ratio=1.30 / pb_ratio=1.25 / aq=3:0.80
Language : English
Default : Yes
Forced : No

Audio #1
ID : 2
Format : AC-3
Format/Info : Audio Coding 3
Commercial name : Dolby Digital
Codec ID : A_AC3
Duration : 1 h 39 min
Bit rate mode : Constant
Bit rate : 384 kb/s
Channel(s) : 6 channels
Channel layout : L R C LFE Ls Rs
Sampling rate : 48.0 kHz
Frame rate : 31.250 FPS (1536 SPF)
Compression mode : Lossy
Stream size : 273 MiB (15%)
Title : DVO [Pazl Voice]
Language : Russian
Service kind : Complete Main
Default : Yes
Forced : Yes

Audio #2
ID : 3
Format : AC-3
Format/Info : Audio Coding 3
Commercial name : Dolby Digital
Codec ID : A_AC3
Duration : 1 h 39 min
Bit rate mode : Constant
Bit rate : 384 kb/s
Channel(s) : 6 channels
Channel layout : L R C LFE Ls Rs
Sampling rate : 48.0 kHz
Frame rate : 31.250 FPS (1536 SPF)
Compression mode : Lossy
Stream size : 273 MiB (15%)
Title : Original
Language : English
Service kind : Complete Main
Default : No
Forced : No

Text #1
ID : 4
Format : UTF-8
Codec ID : S_TEXT/UTF8
Codec ID/Info : UTF-8 Plain Text
Duration : 1 h 37 min
Bit rate : 115 b/s
Count of elements : 1508
Stream size : 81.9 KiB (0%)
Title : Full
Language : Russian
Default : No
Forced : No

Text #2
ID : 5
Format : UTF-8
Codec ID : S_TEXT/UTF8
Codec ID/Info : UTF-8 Plain Text
Duration : 44 min 8 s
Bit rate : 0 b/s
Count of elements : 4
Stream size : 107 Bytes (0%)
Title : Forced
Language : English
Default : No
Forced : No

Text #3
ID : 6
Format : UTF-8
Codec ID : S_TEXT/UTF8
Codec ID/Info : UTF-8 Plain Text
Duration : 1 h 31 min
Bit rate : 81 b/s
Count of elements : 1548
Stream size : 54.4 KiB (0%)
Title : Full
Language : English
Default : No
Forced : No

Text #4
ID : 7
Format : UTF-8
Codec ID : S_TEXT/UTF8
Codec ID/Info : UTF-8 Plain Text
Duration : 1 h 34 min
Bit rate : 93 b/s
Count of elements : 1784
Stream size : 64.9 KiB (0%)
Title : SDH
Language : English
Default : No
Forced : No

Text #5
ID : 8
Format : UTF-8
Codec ID : S_TEXT/UTF8
Codec ID/Info : UTF-8 Plain Text
Duration : 1 h 37 min
Bit rate : 113 b/s
Count of elements : 1501
Stream size : 80.7 KiB (0%)
Title : Full
Language : Ukrainian
Default : No
Forced : No

Menu
01:33:00.000 : en:Credits

Этот торрент недоступен для скачивания без регистрации, однако доступен по публичной magnet-ссылке (источники с публичных трекеров). Перед использованием ссылки прочтите, пожалуйста Пользовательское соглашение, а также как можно дольше оставайтесь на раздаче! Для того, чтобы скачать сам торрент-файл (который видит больше источников), а также для того, чтобы поблагодарить релизера, вам необходимо зарегистрироваться. Если регистрироваться лень - вы можете также попробовать скачать релиз по нашим партнерским ссылкам ниже. Кроме того, зарегистрированным пользователям не показывается всплывающая реклама при скачивании.

[underver.se].t245378.torrent
Трекер: Зарегистрирован   [ 14.08.2022 15:07 ]  
Статус: T временная (by Robbertta at 14.08.2022 15:30)
Поблагодарили: пока никто не поблагодарил...
Тип торрента: публичный - доступные источники с открытых трекеров: 
Размер: 1.79 GB (занимает 0.41 DVDR, для записи нужно 1 болванка DVDR/RW)
 
 

Яндекс.Метрика powered by Sphinx


В Н И М А Н И Е
Сайт не распространяет и не хранит электронные версии произведений, а лишь бесплатно и без коммерческой выгоды (не требуя взамен платы,
SMS и т.д.) предоставляет доступ к создаваемому пользователями каталогу ссылок на торрент-файлы, которые содержат только списки хеш-сумм.
Убедительная просьба с жалобами обращаться напрямую к пользователю, разместившему торрент файл.

Вверх