Loading...
Error

Васаби / Wasabi (Жерар Кравчик) [2001 г., Боевик, приключения, комедия, драма, криминал, BDRip-HEVC 1080p] Dub (R5 Союз-Видео)+ 5xMVO (CP Digital, LDV, Домашнее видео, НТВ, Россия) + DVO (Гланц и Королева) + AVO (Володарский) + Original (fra)

Статистика раздачи
Размер:  8.29 GB   |    Зарегистрирован:  1 месяц 18 дней   |    Скачан:  11 раз

Полного источника не было: 6 часов

Сидов:  0  |  0 KB/s  ]   Личеров:  0  |  0 KB/s  ]

* - сиды/пиры с внешних источников

   
 
Автор Сообщение

Evgenii82 Пол:Муж

19-Авг-2022 06:25

Васаби / Wasabi


Год выпуска: 2001
Жанр: Боевик, приключения, комедия, драма, криминал
Страна: Франция , Япония
Режиссер: Жерар Кравчик
В ролях: Жан Рено, Мишель Мюллер, Риоко Хиросуэ, Кароль Буке, Людовик Бертийо, Мишель Скурно, Ян Эпштейн, Александр Брик, Жан-Марк Монтальто, Вероник Бальм, Йоши Оида
Сюжет фильма:
Юбер Фиорентини (Жан Рено) - самый эксцентричный полицейский во Франции. Его методы работы весьма своеобразны, и начальство мечтает поскорее отправить его в отставку. Однажды Юбер узнаёт, что его единственная любимая женщина, с которой он не виделся 19 лет, скончалась в Японии. Приехав на её похороны в Страну Восходящего Солнца, Юбер с изумлением обнаруживает, что у него есть взрослая дочь. Мало того, девушка оказывается втянутой в мафиозные разборки, и за ней охотится Якудза. Новоявленному папаше ничего не остается, как постараться своими "фирменными" методами уладить все проблемы...


Качество видео: BDRip 1080p

Продолжительность: 01:33:44
Формат: MKV
Видео: HEVC, 10 бит, 1920x814, 8606 Кбит/с
Аудио #1: русский, дублированный [лицензия, R5 Союз-Видео], AC3 5.1, 448 kbps
Аудио #2: русский, многоголосый закадровый [профессиональный, CP Digital], AC3 5.1, 448 kbps
Аудио #3: русский, многоголосый закадровый [профессиональный, LDV], AC3 5.1, 384 kbps
Аудио #4: русский, многоголосый закадровый [профессиональный, Домашнее видео], AC3 5.1, 384 kbps
Аудио #5: русский, многоголосый закадровый [профессиональный, НТВ / СТС], AC3 2.0, 256 kbps
Аудио #6: русский, многоголосый закадровый [профессиональный, Россия], AC3 2.0, 192 kbps
Аудио #7: русский, двухголосый закадровый [профессиональный, Пётр Гланц и Инна Королёва], AC3 5.1, 640 kbps
Аудио #8: русский, одноголосый закадровый [авторский, Леонид Володарский], AC3 5.1, 640 kbps
Аудио #9: французский, оригинал, AC3 5.1, 640 kbps
Субтитры: тип: вшитые отключаемые, русский, английский

Код:

x265 [info]: frame I:    566, Avg QP:18.09  kb/s: 18990.02
x265 [info]: frame P:  24680, Avg QP:19.34  kb/s: 14669.48
x265 [info]: frame B: 109748, Avg QP:21.28  kb/s: 7187.92
x265 [info]: Weighted P-Frames: Y:5.0% UV:3.6%
x265 [info]: Weighted B-Frames: Y:4.8% UV:2.6%
x265 [info]: consecutive B-frames: 2.1% 2.6% 5.3% 21.2% 13.2% 41.0% 7.0% 5.0% 1.4% 0.6% 0.3% 0.2% 0.1% 0.1%
x265 [info]: encoded 134994 frames in 117103.93s (1.15 fps), 8605.20 kb/s, Avg QP:20.91

Общее
Уникальный идентификатор : 75051673155333709823330219176733688302 (0x38766D2D2DBE8FBB97DF34A34FD7C1EE)
Полное имя : \\.\Васаби.Wasabi.2001.GER.Transfer.BDRip-HEVC.1080p.mkv
Формат : Matroska
Версия формата : Version 4
Размер файла : 8,29 Гбайт
Продолжительность : 1 ч. 33 м.
Общий поток : 12,6 Мбит/сек
Название фильма : Васаби.Wasabi.2001.GER.Transfer.BDRip-HEVC.1080p
Дата кодирования : UTC 2022-02-06 07:29:48
Программа кодирования : mkvmerge v64.0.0 ('Willows') 64-bit
Библиотека кодирования : libebml v1.4.2 + libmatroska v1.6.4

Видео
Идентификатор : 1
Формат : HEVC
Формат/Информация : High Efficiency Video Coding
Профиль формата : Main [email protected]@High
Идентификатор кодека : V_MPEGH/ISO/HEVC
Продолжительность : 1 ч. 33 м.
Битрейт : 8 606 Кбит/сек
Ширина : 1 920 пикселей
Высота : 814 пикселей
Соотношение сторон : 2,35:1
Режим частоты кадров : Постоянный
Частота кадров : 23,976 (24000/1001) кадра/сек
Цветовое пространство : YUV
Субдискретизация насыщенности : 4:2:0
Битовая глубина : 10 бит
Бит/(Пиксели*Кадры) : 0.230
Размер потока : 5,64 Гбайт (68%)
Заголовок : Wasabi / Rip by OldGamer
Библиотека кодирования : x265 3.5+19-8003e4382:[Windows][GCC 11.2.0][64 bit] 10bit
Настройки программы : cpuid=1111039 / frame-threads=3 / numa-pools=8 / wpp / no-pmode / no-pme / no-psnr / no-ssim / log-level=2 / input-csp=1 / input-res=1920x814 / interlace=0 / total-frames=134994 / level-idc=41 / high-tier=1 / uhd-bd=0 / ref=5 / no-allow-non-conformance / no-repeat-headers / annexb / no-aud / no-eob / no-eos / no-hrd / info / hash=0 / no-temporal-layers / open-gop / min-keyint=23 / keyint=240 / gop-lookahead=0 / bframes=13 / b-adapt=2 / b-pyramid / bframe-bias=0 / rc-lookahead=40 / lookahead-slices=0 / scenecut=40 / no-hist-scenecut / radl=0 / no-splice / no-intra-refresh / ctu=32 / min-cu-size=8 / rect / amp / max-tu-size=32 / tu-inter-depth=4 / tu-intra-depth=4 / limit-tu=1 / rdoq-level=2 / dynamic-rd=0.00 / no-ssim-rd / signhide / no-tskip / nr-intra=0 / nr-inter=0 / no-constrained-intra / no-strong-intra-smoothing / max-merge=5 / limit-refs=3 / no-limit-modes / me=3 / subme=7 / merange=57 / temporal-mvp / no-frame-dup / no-hme / weightp / weightb / no-analyze-src-pics / deblock=-2:-2 / no-sao / no-sao-non-deblock / rd=6 / selective-sao=0 / no-early-skip / no-rskip / no-fast-intra / no-tskip-fast / no-cu-lossless / b-intra / no-splitrd-skip / rdpenalty=0 / psy-rd=2.00 / psy-rdoq=1.00 / no-rd-refine / no-lossless / cbqpoffs=0 / crqpoffs=0 / rc=crf / crf=19.2 / qcomp=0.60 / qpstep=4 / stats-write=0 / stats-read=0 / vbv-maxrate=50000 / vbv-bufsize=50000 / vbv-init=0.9 / min-vbv-fullness=50.0 / max-vbv-fullness=80.0 / crf-max=0.0 / crf-min=0.0 / ipratio=1.40 / pbratio=1.30 / aq-mode=1 / aq-strength=1.00 / no-cutree / zone-count=1 / zones: / start-frame=127813 / end-frame=134994 / qp=36 / no-strict-cbr / qg-size=32 / no-rc-grain / qpmax=69 / qpmin=0 / no-const-vbv / sar=1 / overscan=0 / videoformat=5 / range=0 / colorprim=2 / transfer=2 / colormatrix=2 / chromaloc=0 / display-window=0 / cll=0,0 / min-luma=0 / max-luma=1023 / log2-max-poc-lsb=8 / vui-timing-info / vui-hrd-info / slices=1 / no-opt-qp-pps / no-opt-ref-list-length-pps / no-multi-pass-opt-rps / scenecut-bias=0.00 / hist-threshold=0.03 / no-opt-cu-delta-qp / no-aq-motion / no-hdr10 / no-hdr10-opt / no-dhdr10-opt / no-idr-recovery-sei / analysis-reuse-level=0 / analysis-save-reuse-level=0 / analysis-load-reuse-level=0 / scale-factor=0 / refine-intra=0 / refine-inter=0 / refine-mv=1 / refine-ctu-distortion=0 / no-limit-sao / ctu-info=0 / no-lowpass-dct / refine-analysis-type=0 / copy-pic=1 / max-ausize-factor=1.0 / no-dynamic-refine / no-single-sei / no-hevc-aq / no-svt / no-field / qp-adaptation-range=1.00 / scenecut-aware-qp=0conformance-window-offsets / right=0 / bottom=0 / decoder-max-rate=0 / no-vbv-live-multi-pass
Язык : French
Default : Да
Forced : Нет

Аудио #1
Идентификатор : 2
Формат : AC-3
Формат/Информация : Audio Coding 3
Коммерческое название : Dolby Digital
Идентификатор кодека : A_AC3
Продолжительность : 1 ч. 33 м.
Вид битрейта : Постоянный
Битрейт : 448 Кбит/сек
Каналы : 6 каналов
Channel layout : L R C LFE Ls Rs
Частота : 48,0 КГц
Частота кадров : 31,250 кадров/сек (1536 SPF)
Метод сжатия : С потерями
Размер потока : 301 Мбайт (4%)
Заголовок : DUB (R5 Союз-Видео)
Язык : Russian
Service kind : Complete Main
Default : Да
Forced : Нет

Аудио #2
Идентификатор : 3
Формат : AC-3
Формат/Информация : Audio Coding 3
Коммерческое название : Dolby Digital
Идентификатор кодека : A_AC3
Продолжительность : 1 ч. 33 м.
Вид битрейта : Постоянный
Битрейт : 448 Кбит/сек
Каналы : 6 каналов
Channel layout : L R C LFE Ls Rs
Частота : 48,0 КГц
Частота кадров : 31,250 кадров/сек (1536 SPF)
Метод сжатия : С потерями
Размер потока : 301 Мбайт (4%)
Заголовок : MVO (CP Digital)
Язык : Russian
Service kind : Complete Main
Default : Нет
Forced : Нет

Аудио #3
Идентификатор : 4
Формат : AC-3
Формат/Информация : Audio Coding 3
Коммерческое название : Dolby Digital
Идентификатор кодека : A_AC3
Продолжительность : 1 ч. 33 м.
Вид битрейта : Постоянный
Битрейт : 384 Кбит/сек
Каналы : 6 каналов
Channel layout : L R C LFE Ls Rs
Частота : 48,0 КГц
Частота кадров : 31,250 кадров/сек (1536 SPF)
Метод сжатия : С потерями
Размер потока : 258 Мбайт (3%)
Заголовок : MVO (LDV)
Язык : Russian
Service kind : Complete Main
Default : Нет
Forced : Нет

Аудио #4
Идентификатор : 5
Формат : AC-3
Формат/Информация : Audio Coding 3
Коммерческое название : Dolby Digital
Идентификатор кодека : A_AC3
Продолжительность : 1 ч. 33 м.
Вид битрейта : Постоянный
Битрейт : 384 Кбит/сек
Каналы : 6 каналов
Channel layout : L R C LFE Ls Rs
Частота : 48,0 КГц
Частота кадров : 31,250 кадров/сек (1536 SPF)
Метод сжатия : С потерями
Размер потока : 258 Мбайт (3%)
Заголовок : MVO (Домашнее видео)
Язык : Russian
Service kind : Complete Main
Default : Нет
Forced : Нет

Аудио #5
Идентификатор : 6
Формат : AC-3
Формат/Информация : Audio Coding 3
Коммерческое название : Dolby Digital
Идентификатор кодека : A_AC3
Продолжительность : 1 ч. 33 м.
Вид битрейта : Постоянный
Битрейт : 256 Кбит/сек
Каналы : 2 канала
Channel layout : L R
Частота : 48,0 КГц
Частота кадров : 31,250 кадров/сек (1536 SPF)
Метод сжатия : С потерями
Размер потока : 172 Мбайт (2%)
Заголовок : MVO (НТВ / СТС)
Язык : Russian
Service kind : Complete Main
Default : Нет
Forced : Нет

Аудио #6
Идентификатор : 7
Формат : AC-3
Формат/Информация : Audio Coding 3
Коммерческое название : Dolby Digital
Идентификатор кодека : A_AC3
Продолжительность : 1 ч. 33 м.
Вид битрейта : Постоянный
Битрейт : 192 Кбит/сек
Каналы : 2 канала
Channel layout : L R
Частота : 48,0 КГц
Частота кадров : 31,250 кадров/сек (1536 SPF)
Метод сжатия : С потерями
Размер потока : 129 Мбайт (2%)
Заголовок : MVO (Россия)
Язык : Russian
Service kind : Complete Main
Default : Нет
Forced : Нет

Аудио #7
Идентификатор : 8
Формат : AC-3
Формат/Информация : Audio Coding 3
Коммерческое название : Dolby Digital
Идентификатор кодека : A_AC3
Продолжительность : 1 ч. 33 м.
Вид битрейта : Постоянный
Битрейт : 640 Кбит/сек
Каналы : 6 каналов
Channel layout : L R C LFE Ls Rs
Частота : 48,0 КГц
Частота кадров : 31,250 кадров/сек (1536 SPF)
Метод сжатия : С потерями
Размер потока : 430 Мбайт (5%)
Заголовок : DVO (Пётр Гланц и Инна Королёва)
Язык : Russian
Service kind : Complete Main
Default : Нет
Forced : Нет

Аудио #8
Идентификатор : 9
Формат : AC-3
Формат/Информация : Audio Coding 3
Коммерческое название : Dolby Digital
Идентификатор кодека : A_AC3
Продолжительность : 1 ч. 33 м.
Вид битрейта : Постоянный
Битрейт : 640 Кбит/сек
Каналы : 6 каналов
Channel layout : L R C LFE Ls Rs
Частота : 48,0 КГц
Частота кадров : 31,250 кадров/сек (1536 SPF)
Метод сжатия : С потерями
Размер потока : 430 Мбайт (5%)
Заголовок : AVO (Леонид Володарский)
Язык : Russian
Service kind : Complete Main
Default : Нет
Forced : Нет

Аудио #9
Идентификатор : 10
Формат : AC-3
Формат/Информация : Audio Coding 3
Коммерческое название : Dolby Digital
Идентификатор кодека : A_AC3
Продолжительность : 1 ч. 33 м.
Вид битрейта : Постоянный
Битрейт : 640 Кбит/сек
Каналы : 6 каналов
Channel layout : L R C LFE Ls Rs
Частота : 48,0 КГц
Частота кадров : 31,250 кадров/сек (1536 SPF)
Метод сжатия : С потерями
Размер потока : 430 Мбайт (5%)
Язык : French
Service kind : Complete Main
Default : Нет
Forced : Нет

Текст #1
Идентификатор : 11
Формат : UTF-8
Идентификатор кодека : S_TEXT/UTF8
Идентификатор кодека/Информация : UTF-8 Plain Text
Продолжительность : 1 ч. 27 м.
Битрейт : 91 бит/сек
Count of elements : 908
Размер потока : 59,1 Кбайт (0%)
Заголовок : R5
Язык : Russian
Default : Нет
Forced : Нет

Текст #2
Идентификатор : 12
Формат : UTF-8
Идентификатор кодека : S_TEXT/UTF8
Идентификатор кодека/Информация : UTF-8 Plain Text
Продолжительность : 1 ч. 27 м.
Битрейт : 86 бит/сек
Count of elements : 883
Размер потока : 55,2 Кбайт (0%)
Заголовок : Flexor
Язык : Russian
Default : Нет
Forced : Нет

Текст #3
Идентификатор : 13
Формат : UTF-8
Идентификатор кодека : S_TEXT/UTF8
Идентификатор кодека/Информация : UTF-8 Plain Text
Продолжительность : 1 ч. 26 м.
Битрейт : 51 бит/сек
Count of elements : 815
Размер потока : 32,5 Кбайт (0%)
Язык : English
Default : Нет
Forced : Нет

Меню
00:00:00.000 : en:Start
00:02:26.479 : en:The Chief's Son
00:06:04.572 : en:Tranny Interview
00:10:07.940 : en:Banque De L'etoile Robbery
00:12:36.797 : en:Two Month Suspension
00:16:24.400 : en:Dinner with Sofia
00:18:45.207 : en:My Name Is Hishibashi
00:22:23.133 : en:Welcome to Japan
00:24:41.229 : en:Momo
00:29:24.596 : en:Sole Legatee
00:32:14.933 : en:Yumi
00:37:53.729 : en:The Crematorium
00:42:59.952 : en:Miko's File
00:49:44.314 : en:Yumi's Inheritance
00:55:24.070 : en:Red Alert
01:00:56.903 : en:Goon's With Shades
01:07:25.958 : en:Arms & Fashion Show
01:14:01.937 : en:The Nightclub
01:17:05.454 : en:Yakuza Shootout
01:19:13.206 : en:Names & Numbers
01:25:31.000 : en:Like Tigers & Wolves
01:28:50.867 : en:Takanawa Aka the Zebra

Этот торрент недоступен для скачивания без регистрации, однако доступен по публичной magnet-ссылке (источники с публичных трекеров). Перед использованием ссылки прочтите, пожалуйста Пользовательское соглашение, а также как можно дольше оставайтесь на раздаче! Для того, чтобы скачать сам торрент-файл (который видит больше источников), а также для того, чтобы поблагодарить релизера, вам необходимо зарегистрироваться. Если регистрироваться лень - вы можете также попробовать скачать релиз по нашим партнерским ссылкам ниже. Кроме того, зарегистрированным пользователям не показывается всплывающая реклама при скачивании.

[underver.se].t245486.torrent
Трекер: Зарегистрирован   [ 19.08.2022 06:25 ]  
Статус: проверено (by Evgenii82 at 19.08.2022 06:27)
Поблагодарили: 1 человек
Тип торрента: публичный - доступные источники с открытых трекеров: 
Размер: 8.29 GB (занимает 1.89 DVDR, для записи нужно 2 болванки DVDR/RW)
 
 

Панюра Пол:Муж

22-Авг-2022 08:53

Привет!

Яндекс.Метрика powered by Sphinx


В Н И М А Н И Е
Сайт не распространяет и не хранит электронные версии произведений, а лишь бесплатно и без коммерческой выгоды (не требуя взамен платы,
SMS и т.д.) предоставляет доступ к создаваемому пользователями каталогу ссылок на торрент-файлы, которые содержат только списки хеш-сумм.
Убедительная просьба с жалобами обращаться напрямую к пользователю, разместившему торрент файл.

Вверх