Loading...
Error

(New Wave, Synthpop) Roland Orzabal - Tomcats Screaming Outside (2000) [FLAC (Image+.CUE), Lossless]

Статистика раздачи
Размер:  461 MB   |    Зарегистрирован:  8 лет 10 месяцев   |    Скачан:  8 раз

Полного источника не было: 17 дней

Сидов:  0  |  0 KB/s  ]   Личеров:  0  |  0 KB/s  ]

* - сиды/пиры с внешних источников

   
 
Автор Сообщение

Бишеп Пол:Муж

16-Ноя-2013 18:29

Roland Orzabal - Tomcats Screaming Outside

Жанр: New Wave, Synthpop
Год выпуска: 2000
Производитель диска: Eagle Records EAGCD159 GAS 0000159 EAG EDL EAG 295-2
Аудиокодек: FLAC
Тип рипа: Image+.CUE
Битрейт аудио: Lossless
Продолжительность: 00:54:42
Треклист:
01. Ticket To The World
02. Low Life
03. Hypnoculture
04. Bullets For Brains
05. For The Love Of Cain
06. Under Ether
07. Day By Day By Day By Day By Day
08. Dandelion
09. Hey Andy
10. Kill Love
11. Snowdrop
12. Maybe Our Days Are Numbered

Exact Audio Copy V1.0 beta 3 from 29. August 2011

EAC extraction logfile from 22. February 2012, 18:26

Roland Orzabal / Tomcats Screaming Outside

Used drive : PLEXTOR DVDR PX-716A Adapter: 0 ID: 0

Read mode : Secure
Utilize accurate stream : Yes
Defeat audio cache : Yes
Make use of C2 pointers : No

Read offset correction : 30
Overread into Lead-In and Lead-Out : Yes
Fill up missing offset samples with silence : Yes
Delete leading and trailing silent blocks : No
Null samples used in CRC calculations : Yes
Used interface : Native Win32 interface for Win NT & 2000

Used output format : User Defined Encoder
Selected bitrate : 1024 kBit/s
Quality : High
Add ID3 tag : No
Command line compressor : C:\Program Files (x86)\FLAC\flac.exe
Additional command line options : -8 -V -T "ARTIST=%artist%" -T "TITLE=%title%" -T "ALBUM=%albumtitle%" -T "DATE=%year%" -T "TRACKNUMBER=%tracknr%" -T "GENRE=%genre%" -T "COMMENT=EAC FLAC -8" %source%

TOC of the extracted CD

Track | Start | Length | Start sector | End sector
---------------------------------------------------------
1 | 0:00.00 | 5:48.15 | 0 | 26114
2 | 5:48.15 | 4:36.57 | 26115 | 46871
3 | 10:24.72 | 3:13.13 | 46872 | 61359
4 | 13:38.10 | 4:08.67 | 61360 | 80026
5 | 17:47.02 | 4:06.23 | 80027 | 98499
6 | 21:53.25 | 5:51.07 | 98500 | 124831
7 | 27:44.32 | 4:35.70 | 124832 | 145526
8 | 32:20.27 | 3:03.35 | 145527 | 159286
9 | 35:23.62 | 4:25.58 | 159287 | 179219
10 | 39:49.45 | 5:40.62 | 179220 | 204781
11 | 45:30.32 | 4:23.63 | 204782 | 224569
12 | 49:54.20 | 4:47.45 | 224570 | 246139

Range status and errors

Selected range

Filename E:\mtorrent_flac\Roland Orzabal (ex Tears For Fears) - Tomcats Screaming Outside\Roland Orzabal - Tomcats Screaming Outside.wav

Peak level 100.0 %
Extraction speed 1.6 X
Range quality 100.0 %
Test CRC 160D80B1
Copy CRC 160D80B1
Copy OK

No errors occurred

AccurateRip summary
Track 1 accurately ripped (confidence 6) [87AE4B75] (AR v2)
Track 2 accurately ripped (confidence 6) [393A4826] (AR v2)
Track 3 accurately ripped (confidence 6) [04694310] (AR v2)
Track 4 accurately ripped (confidence 6) [827FE2E5] (AR v2)
Track 5 accurately ripped (confidence 6) [381F28C0] (AR v2)
Track 6 accurately ripped (confidence 6) [78A6AB52] (AR v2)
Track 7 accurately ripped (confidence 6) [438AD881] (AR v2)
Track 8 accurately ripped (confidence 6) [7AEFF9B8] (AR v2)
Track 9 accurately ripped (confidence 6) [AD06F93B] (AR v2)
Track 10 accurately ripped (confidence 6) [901200DF] (AR v2)
Track 11 accurately ripped (confidence 6) [4BE9E92D] (AR v2)
Track 12 accurately ripped (confidence 6) [F9AC49A9] (AR v2)
All tracks accurately ripped

End of status report

---- CUETools DB Plugin V2.1.3

[CTDB TOCID: YA9tWZOE90SkRbMdiTsPMNcocz4-] found, Submit result: YA9tWZOE90SkRbMdiTsPMNcocz4- has been confirmed
[2282fea3] (1/1) Accurately ripped

==== Log checksum 3713F82D17AB2265E6FBDED8888BFAAA566FF6A282F42F5B9AF910D62DD5050A ====

Этот торрент недоступен для скачивания без регистрации, однако доступен по публичной magnet-ссылке (источники с публичных трекеров). Перед использованием ссылки прочтите, пожалуйста Пользовательское соглашение, а также как можно дольше оставайтесь на раздаче! Для того, чтобы скачать сам торрент-файл (который видит больше источников), а также для того, чтобы поблагодарить релизера, вам необходимо зарегистрироваться. Если регистрироваться лень - вы можете также попробовать скачать релиз по нашим партнерским ссылкам ниже. Кроме того, зарегистрированным пользователям не показывается всплывающая реклама при скачивании.

[underverse.su].t33137.torrent
Трекер: Зарегистрирован   [ 16.11.2013 18:29 ]  
Статус: проверено (by Бишеп at 16.11.2013 18:30)
Поблагодарили: пока никто не поблагодарил...
Тип торрента: публичный - доступные источники с открытых трекеров: 
Размер: 461 MB (занимает 0.1 DVDR, для записи нужно 1 болванка DVDR/RW)
 
 


Последний раз редактировалось: Бишеп (07.02.2022 11:17), всего редактировалось 1 раз

Ha3ckthor Пол:Муж

20-Фев-2014 15:02

8) ThXX!!!

Good torrent here :beer:

Яндекс.Метрика powered by Sphinx


В Н И М А Н И Е
Сайт не распространяет и не хранит электронные версии произведений, а лишь бесплатно и без коммерческой выгоды (не требуя взамен платы,
SMS и т.д.) предоставляет доступ к создаваемому пользователями каталогу ссылок на торрент-файлы, которые содержат только списки хеш-сумм.
Убедительная просьба с жалобами обращаться напрямую к пользователю, разместившему торрент файл.

Вверх