Loading...
Error

(New Wave,Pop Rock, Synthpop) The Cars - Complete Greatest Hits (2002) [FLAC (Image+.CUE), Lossless]

Статистика раздачи
Размер:  664 MB   |    Зарегистрирован:  8 лет 9 месяцев   |    Скачан:  15 раз

Полного источника не было: 17 дней

Сидов:  0  |  0 KB/s  ]   Личеров:  0  |  0 KB/s  ]

* - сиды/пиры с внешних источников

   
 
Автор Сообщение

Бишеп Пол:Муж

20-Дек-2013 17:38

The Cars - Complete Greatest Hits

Жанр: New Wave, Pop Rock, Synthpop
Год выпуска: 2002
Производитель диска: Rhino Records - R2 78288
Аудиокодек: FLAC
Тип рипа: Image+.CUE
Битрейт аудио: Lossless
Продолжительность: 01:19:41
Треклист:
01. Just What I Needed
02. My Best Friend's Girl
03. Good Times Roll
04. You're All I've Got Tonight
05. Bye Bye Love
06. Moving In Stereo
07. Let's Go
08. It's All I Can Do
09. Dangerous Type
10. Touch And Go
11. Shake It Up
12. Since You're Gone
13. I'm Not The One
14. You Might Think
15. Drive
16. Magic
17. Hello Again
18. Why Can't I Have You
19. Tonight She Comes
20. You Are The Girl

Exact Audio Copy V0.99 prebeta 5 from 4. May 2009

EAC extraction logfile from 17. November 2009, 2:20

The Cars / Complete Greatest Hits

Used drive : PLEXTOR DVDR PX-716A Adapter: 0 ID: 0

Read mode : Secure
Utilize accurate stream : Yes
Defeat audio cache : Yes
Make use of C2 pointers : No

Read offset correction : 30
Overread into Lead-In and Lead-Out : Yes
Fill up missing offset samples with silence : Yes
Delete leading and trailing silent blocks : No
Null samples used in CRC calculations : Yes
Used interface : Native Win32 interface for Win NT & 2000

Used output format : User Defined Encoder
Selected bitrate : 1024 kBit/s
Quality : High
Add ID3 tag : No
Command line compressor : C:\Program Files\FLAC\flac.exe
Additional command line options : -8 -V -T "ARTIST=%a" -T "TITLE=%t" -T "ALBUM=%g" -T "DATE=%y" -T "TRACKNUMBER=%n" -T "GENRE=%m" -T "COMMENT=EAC FLAC -8" %s

TOC of the extracted CD

Track | Start | Length | Start sector | End sector
---------------------------------------------------------
1 | 0:00.00 | 3:45.67 | 0 | 16941
2 | 3:45.67 | 3:45.73 | 16942 | 33889
3 | 7:31.65 | 3:47.47 | 33890 | 50961
4 | 11:19.37 | 4:14.53 | 50962 | 70064
5 | 15:34.15 | 4:15.12 | 70065 | 89201
6 | 19:49.27 | 4:46.08 | 89202 | 110659
7 | 24:35.35 | 3:35.72 | 110660 | 126856
8 | 28:11.32 | 3:45.73 | 126857 | 143804
9 | 31:57.30 | 4:30.67 | 143805 | 164121
10 | 36:28.22 | 4:57.55 | 164122 | 186451
11 | 41:26.02 | 3:35.33 | 186452 | 202609
12 | 45:01.35 | 3:33.22 | 202610 | 218606
13 | 48:34.57 | 4:14.05 | 218607 | 237661
14 | 52:48.62 | 3:07.73 | 237662 | 251759
15 | 55:56.60 | 3:57.45 | 251760 | 269579
16 | 59:54.30 | 3:59.47 | 269580 | 287551
17 | 63:54.02 | 3:48.65 | 287552 | 304716
18 | 67:42.67 | 4:05.38 | 304717 | 323129
19 | 71:48.30 | 3:56.55 | 323130 | 340884
20 | 75:45.10 | 3:55.72 | 340885 | 358581

Range status and errors

Selected range

Filename E:\mtorrent_flac\The Cars - Complete Greatest Hits\The Cars - Complete Greatest Hits.wav

Peak level 97.2 %
Range quality 100.0 %
Test CRC C8743078
Copy CRC C8743078
Copy OK

No errors occurred

AccurateRip summary
Track 1 accurately ripped (confidence 22) [5B19B708]
Track 2 accurately ripped (confidence 22) [69ED8DDC]
Track 3 accurately ripped (confidence 22) [5C55A3DC]
Track 4 accurately ripped (confidence 22) [DF7C76F2]
Track 5 accurately ripped (confidence 22) [BEE79389]
Track 6 accurately ripped (confidence 22) [D8437AC0]
Track 7 accurately ripped (confidence 22) [DE8E0F82]
Track 8 accurately ripped (confidence 22) [412ED86C]
Track 9 accurately ripped (confidence 22) [18889762]
Track 10 accurately ripped (confidence 22) [8DC6AAFD]
Track 11 accurately ripped (confidence 22) [A281B7BA]
Track 12 accurately ripped (confidence 22) [7D011674]
Track 13 accurately ripped (confidence 22) [5C912183]
Track 14 accurately ripped (confidence 22) [6FD9E1BF]
Track 15 accurately ripped (confidence 22) [AA2D43D0]
Track 16 accurately ripped (confidence 22) [2921B866]
Track 17 accurately ripped (confidence 22) [50D5B97D]
Track 18 accurately ripped (confidence 22) [C724535F]
Track 19 accurately ripped (confidence 22) [6353108E]
Track 20 accurately ripped (confidence 21) [54FA0444]
All tracks accurately ripped

End of status report

Этот торрент недоступен для скачивания без регистрации, однако доступен по публичной magnet-ссылке (источники с публичных трекеров). Перед использованием ссылки прочтите, пожалуйста Пользовательское соглашение, а также как можно дольше оставайтесь на раздаче! Для того, чтобы скачать сам торрент-файл (который видит больше источников), а также для того, чтобы поблагодарить релизера, вам необходимо зарегистрироваться. Если регистрироваться лень - вы можете также попробовать скачать релиз по нашим партнерским ссылкам ниже. Кроме того, зарегистрированным пользователям не показывается всплывающая реклама при скачивании.

[underverse.su].t34399.torrent
Трекер: Зарегистрирован   [ 20.12.2013 17:38 ]  
Статус: проверено (by Бишеп at 20.12.2013 17:39)
Поблагодарили: пока никто не поблагодарил...
Тип торрента: публичный - доступные источники с открытых трекеров: 
Размер: 664 MB (занимает 0.15 DVDR, для записи нужно 1 болванка DVDR/RW)
 
 

Яндекс.Метрика powered by Sphinx


В Н И М А Н И Е
Сайт не распространяет и не хранит электронные версии произведений, а лишь бесплатно и без коммерческой выгоды (не требуя взамен платы,
SMS и т.д.) предоставляет доступ к создаваемому пользователями каталогу ссылок на торрент-файлы, которые содержат только списки хеш-сумм.
Убедительная просьба с жалобами обращаться напрямую к пользователю, разместившему торрент файл.

Вверх