Loading...
Error

(Breakbeat, Acid Jazz, Trip Hop, Acid) Da Damn Phreak Noize Phunk - Electric Crate Digger - (1999) [FLAC (image+.cue), lossless]

Статистика раздачи
Размер:  421 MB   |    Зарегистрирован:  8 лет 8 месяцев   |    Скачан:  7 раз

Полного источника не было: 5 месяцев 15 дней

Сидов:  0  |  0 KB/s  ]   Личеров:  0  |  0 KB/s  ]

* - сиды/пиры с внешних источников

   
 
Автор Сообщение

8ad_R060d Пол:Муж

08-Янв-2014 11:36

Da Damn Phreak Noize Phunk - Electric Crate Digger

Жанр: Breakbeat, Acid Jazz, Trip Hop, Acid
Год выпуска: 1999
Производитель диска: Germany; Studio !K7
Аудиокодек: FLAC
Тип рипа: image+.cue
Битрейт аудио: lossless
Продолжительность: 00:57:02
Наличие сканов в содержимом раздачи: СКАНЫ 300 DPI

Треклист:

01 Dynamite Derby (6:48)
02 Chemical Funk (6:00)
03 Blueberry View (5:41)
04 Grand Royal (6:42)
05 Lunchcorner (6:04)
06 Dazzafact (6:18)
07 Violin Madness (6:33)
08 Peppermint Files (6:08)
09 Projective Pimpin (6:47)


Exact Audio Copy V0.99 prebeta 4 from 23. January 2008

EAC extraction logfile from 23. February 2009, 14:34

Da Damn Phreak Noize Phunk / Electric Crate Digger

Used drive : PIONEER DVD-RW DVR-111 Adapter: 3 ID: 0

Read mode : Secure
Utilize accurate stream : Yes
Defeat audio cache : Yes
Make use of C2 pointers : No

Read offset correction : 48
Overread into Lead-In and Lead-Out : No
Fill up missing offset samples with silence : Yes
Delete leading and trailing silent blocks : No
Null samples used in CRC calculations : Yes
Used interface : Installed external ASPI interface

Used output format : User Defined Encoder
Selected bitrate : 1024 kBit/s
Quality : High
Add ID3 tag : No
Command line compressor : C:\Program Files\Exact Audio Copy\Flac\flac.exe
Additional command line options : -8 -V -T "ARTIST=%a" -T "ALBUM=%g" -T "DATE=%y" -T "GENRE=%m" %s -o %d

TOC of the extracted CD

Track | Start | Length | Start sector | End sector
---------------------------------------------------------
1 | 0:00.00 | 6:48.03 | 0 | 30602
2 | 6:48.03 | 6:00.03 | 30603 | 57605
3 | 12:48.06 | 5:41.18 | 57606 | 83198
4 | 18:29.24 | 6:42.12 | 83199 | 113360
5 | 25:11.36 | 6:04.28 | 113361 | 140688
6 | 31:15.64 | 6:18.14 | 140689 | 169052
7 | 37:34.03 | 6:33.18 | 169053 | 198545
8 | 44:07.21 | 6:07.41 | 198546 | 226111
9 | 50:14.62 | 6:47.34 | 226112 | 256670

Range status and errors

Selected range

Filename F:\temp\nnm\Da Damn Phreak Noize Phunk - Electric Crate Digger.wav

Peak level 100.0 %
Range quality 99.9 %
Test CRC 8D0995BA
Copy CRC 8D0995BA
Copy OK

No errors occurred

AccurateRip summary

Track 1 accurately ripped (confidence 5) [0FDFEF62]
Track 2 accurately ripped (confidence 4) [5AF61580]
Track 3 accurately ripped (confidence 4) [C04D29FC]
Track 4 accurately ripped (confidence 4) [4E4FF1E2]
Track 5 accurately ripped (confidence 4) [4CB4760A]
Track 6 accurately ripped (confidence 5) [3CA7CAE5]
Track 7 accurately ripped (confidence 5) [ED60452C]
Track 8 accurately ripped (confidence 4) [F812C6D7]
Track 9 accurately ripped (confidence 5) [89C8BE97]

All tracks accurately ripped

End of status report

Этот торрент недоступен для скачивания без регистрации, однако доступен по публичной magnet-ссылке (источники с публичных трекеров). Перед использованием ссылки прочтите, пожалуйста Пользовательское соглашение, а также как можно дольше оставайтесь на раздаче! Для того, чтобы скачать сам торрент-файл (который видит больше источников), а также для того, чтобы поблагодарить релизера, вам необходимо зарегистрироваться. Если регистрироваться лень - вы можете также попробовать скачать релиз по нашим партнерским ссылкам ниже. Кроме того, зарегистрированным пользователям не показывается всплывающая реклама при скачивании.

[underverse.su].t35039.torrent
Трекер: Зарегистрирован   [ 08.01.2014 11:36 ]  
Статус: проверено (by Бишеп at 08.01.2014 12:46)
Поблагодарили: 1 человек
Тип торрента: публичный - доступные источники с открытых трекеров: 
Размер: 421 MB (занимает 0.09 DVDR, для записи нужно 1 болванка DVDR/RW)
 
 

Яндекс.Метрика powered by Sphinx


В Н И М А Н И Е
Сайт не распространяет и не хранит электронные версии произведений, а лишь бесплатно и без коммерческой выгоды (не требуя взамен платы,
SMS и т.д.) предоставляет доступ к создаваемому пользователями каталогу ссылок на торрент-файлы, которые содержат только списки хеш-сумм.
Убедительная просьба с жалобами обращаться напрямую к пользователю, разместившему торрент файл.

Вверх