Loading...
Error

(Indie, Dream Pop) Wild Nothing - Nocturne (2012) [FLAC (tracks+.cue), lossless]

Статистика раздачи
Размер:  293 MB   |    Зарегистрирован:  7 лет 11 месяцев   |    Скачан:  10 раз

Полного источника не было: 2 месяца

Сидов:  0  |  0 KB/s  ]   Личеров:  0  |  0 KB/s  ]

* - сиды/пиры с внешних источников

   
 
Автор Сообщение

8ad_R060d Пол:Муж

05-Сен-2014 13:30

Wild Nothing - Nocturne

Жанр: Indie, Dream Pop, Shoegaze
Год выпуска: 2012
Производитель диска: US, Cooperative Music (Universal)
Аудиокодек: FLAC (*.flac)
Тип рипа: tracks+.cue
Битрейт аудио: lossless
Продолжительность: 00:44:16
Наличие сканов в содержимом раздачи: нет
Треклист:

  1. Shadow (4:19)
  2. Midnight Song (3:05)
  3. Nocturne (5:18)
  4. Through The Grass (4:28)
  5. Only Heather (3:14)
  6. This Chain Won't Break (3:38)
  7. Disappear Always (3:29)
  8. Paradise (5:31)
  9. Counting Days (3:52)
  10. The Blue Dress (3:28)
  11. Rheya (3:55)





Код:

Exact Audio Copy V1.0 beta 3 from 29. August 2011

EAC extraction logfile from 28. August 2012, 14:44

Wild Nothing / Nocturne

Used drive  : HL-DT-STBD-RE  BH08LS20   Adapter: 0  ID: 1

Read mode               : Secure
Utilize accurate stream : Yes
Defeat audio cache      : Yes
Make use of C2 pointers : No

Read offset correction                      : 667
Overread into Lead-In and Lead-Out          : No
Fill up missing offset samples with silence : Yes
Delete leading and trailing silent blocks   : No
Null samples used in CRC calculations       : Yes
Used interface                              : Native Win32 interface for Win NT & 2000
Gap handling                                : Appended to previous track

Used output format              : User Defined Encoder
Selected bitrate                : 1024 kBit/s
Quality                         : High
Add ID3 tag                     : No
Command line compressor         : C:\Program Files (x86)\Exact Audio Copy\FLAC\FLAC.EXE
Additional command line options : -8 -V -T "ARTIST=%artist%" -T "TITLE=%title%" -T "ALBUM=%albumtitle%" -T "DATE=%year%" -T "TRACKNUMBER=%tracknr%" -T "GENRE=%genre%" -T "PERFORMER=%albuminterpret%" -T "COMPOSER=%composer%" %haslyrics%--tag-from-file=LYRICS="%lyricsfile%"%haslyrics% -T "ALBUMARTIST=%albumartist%" -T "DISCNUMBER=%cdnumber%" -T "TOTALDISCS=%totalcds%" -T "TOTALTRACKS=%numtracks%" -T "COMMENT=%comment%" %source% -o %dest%

TOC of the extracted CD

     Track |   Start  |  Length  | Start sector | End sector
    ---------------------------------------------------------
        1  |  0:00.00 |  4:18.42 |         0    |    19391
        2  |  4:18.42 |  3:05.21 |     19392    |    33287
        3  |  7:23.63 |  5:18.15 |     33288    |    57152
        4  | 12:42.03 |  4:27.39 |     57153    |    77216
        5  | 17:09.42 |  3:13.47 |     77217    |    91738
        6  | 20:23.14 |  3:38.05 |     91739    |   108093
        7  | 24:01.19 |  3:29.06 |    108094    |   123774
        8  | 27:30.25 |  5:30.69 |    123775    |   148593
        9  | 33:01.19 |  3:51.47 |    148594    |   165965
       10  | 36:52.66 |  3:27.41 |    165966    |   181531
       11  | 40:20.32 |  3:55.23 |    181532    |   199179

Track  1

     Filename C:\01 - Shadow.wav

     Pre-gap length  0:00:02.00

     Peak level 98.8 %
     Extraction speed 1.1 X
     Track quality 100.0 %
     Test CRC 3BB91338
     Copy CRC 3BB91338
     Track not present in AccurateRip database
     Copy OK

Track  2

     Filename C:\02 - Midnight Song.wav

     Peak level 98.8 %
     Extraction speed 1.0 X
     Track quality 99.9 %
     Test CRC 4B9137AB
     Copy CRC 4B9137AB
     Track not present in AccurateRip database
     Copy OK

Track  3

     Filename C:\03 - Nocturne.wav

     Peak level 98.8 %
     Extraction speed 1.4 X
     Track quality 100.0 %
     Test CRC 909EE1D7
     Copy CRC 909EE1D7
     Track not present in AccurateRip database
     Copy OK

Track  4

     Filename C:\04 - Through the Grass.wav

     Peak level 98.8 %
     Extraction speed 1.5 X
     Track quality 100.0 %
     Test CRC 373D74AB
     Copy CRC 373D74AB
     Track not present in AccurateRip database
     Copy OK

Track  5

     Filename C:\05 - Only Heather.wav

     Peak level 98.8 %
     Extraction speed 1.5 X
     Track quality 100.0 %
     Test CRC 60D762E1
     Copy CRC 60D762E1
     Track not present in AccurateRip database
     Copy OK

Track  6

     Filename C:\06 - This Chain Won't Break.wav

     Peak level 99.0 %
     Extraction speed 1.6 X
     Track quality 100.0 %
     Test CRC 90F387D8
     Copy CRC 90F387D8
     Track not present in AccurateRip database
     Copy OK

Track  7

     Filename C:\07 - Disappear Always.wav

     Peak level 98.8 %
     Extraction speed 1.7 X
     Track quality 100.0 %
     Test CRC 88D5A01D
     Copy CRC 88D5A01D
     Track not present in AccurateRip database
     Copy OK

Track  8

     Filename C:\08 - Paradise.wav

     Peak level 98.8 %
     Extraction speed 1.9 X
     Track quality 100.0 %
     Test CRC 838523F7
     Copy CRC 838523F7
     Track not present in AccurateRip database
     Copy OK

Track  9

     Filename C:\09 - Counting Days.wav

     Peak level 98.8 %
     Extraction speed 1.9 X
     Track quality 100.0 %
     Test CRC D9E75836
     Copy CRC D9E75836
     Track not present in AccurateRip database
     Copy OK

Track 10

     Filename C:\10 - The Blue Dress.wav

     Peak level 98.8 %
     Extraction speed 1.9 X
     Track quality 100.0 %
     Test CRC 21E8C07B
     Copy CRC 21E8C07B
     Track not present in AccurateRip database
     Copy OK

Track 11

     Filename C:\11 - Rheya.wav

     Peak level 98.8 %
     Extraction speed 2.0 X
     Track quality 100.0 %
     Test CRC 0F407DE5
     Copy CRC 0F407DE5
     Track not present in AccurateRip database
     Copy OK

None of the tracks are present in the AccurateRip database

No errors occurred

End of status report

---- CUETools DB Plugin V2.1.3

[CTDB TOCID: lWdfMK2DafEEL5jLlz9KwLUQAHg-] found, Submit result: already submitted
[921e6015] (1/1) Accurately ripped

==== Log checksum 6BEC89EC3A9E54D34012AA491E248819A1A7FE71E51A1ED8963EFF3E3061FF53 ====

Код:

REM GENRE Rock
REM DATE 2012
REM DISCID 790A5F0B
REM COMMENT "ExactAudioCopy v1.0b3"
PERFORMER "Wild Nothing"
TITLE "Nocturne"
FILE "01 - Shadow.wav" WAVE
  TRACK 01 AUDIO
    TITLE "Shadow"
    PERFORMER "Wild Nothing"
    ISRC GBBRP1235601
    INDEX 01 00:00:00
FILE "02 - Midnight Song.wav" WAVE
  TRACK 02 AUDIO
    TITLE "Midnight Song"
    PERFORMER "Wild Nothing"
    ISRC GBBRP1235602
    INDEX 01 00:00:00
FILE "03 - Nocturne.wav" WAVE
  TRACK 03 AUDIO
    TITLE "Nocturne"
    PERFORMER "Wild Nothing"
    ISRC GBBRP1235603
    INDEX 01 00:00:00
FILE "04 - Through the Grass.wav" WAVE
  TRACK 04 AUDIO
    TITLE "Through the Grass"
    PERFORMER "Wild Nothing"
    ISRC GBBRP1235604
    INDEX 01 00:00:00
FILE "05 - Only Heather.wav" WAVE
  TRACK 05 AUDIO
    TITLE "Only Heather"
    PERFORMER "Wild Nothing"
    ISRC GBBRP1235605
    INDEX 01 00:00:00
FILE "06 - This Chain Won't Break.wav" WAVE
  TRACK 06 AUDIO
    TITLE "This Chain Won't Break"
    PERFORMER "Wild Nothing"
    ISRC GBBRP1235606
    INDEX 01 00:00:00
FILE "07 - Disappear Always.wav" WAVE
  TRACK 07 AUDIO
    TITLE "Disappear Always"
    PERFORMER "Wild Nothing"
    ISRC GBBRP1235607
    INDEX 01 00:00:00
FILE "08 - Paradise.wav" WAVE
  TRACK 08 AUDIO
    TITLE "Paradise"
    PERFORMER "Wild Nothing"
    ISRC GBBRP1235608
    INDEX 01 00:00:00
FILE "09 - Counting Days.wav" WAVE
  TRACK 09 AUDIO
    TITLE "Counting Days"
    PERFORMER "Wild Nothing"
    ISRC GBBRP1235609
    INDEX 01 00:00:00
FILE "10 - The Blue Dress.wav" WAVE
  TRACK 10 AUDIO
    TITLE "The Blue Dress"
    PERFORMER "Wild Nothing"
    ISRC GBBRP1235610
    INDEX 01 00:00:00
FILE "11 - Rheya.wav" WAVE
  TRACK 11 AUDIO
    TITLE "Rheya"
    PERFORMER "Wild Nothing"
    ISRC GBBRP1235612
    INDEX 01 00:00:00

Варнинг!! Эту страницу собирали и редактировали роботы. Они могли случайно прикрутить ошибки, неточности и другие глупости.

Этот торрент недоступен для скачивания без регистрации, однако доступен по публичной magnet-ссылке (источники с публичных трекеров). Перед использованием ссылки прочтите, пожалуйста Пользовательское соглашение, а также как можно дольше оставайтесь на раздаче! Для того, чтобы скачать сам торрент-файл (который видит больше источников), а также для того, чтобы поблагодарить релизера, вам необходимо зарегистрироваться. Если регистрироваться лень - вы можете также попробовать скачать релиз по нашим партнерским ссылкам ниже. Кроме того, зарегистрированным пользователям не показывается всплывающая реклама при скачивании.

[underverse.su].t43614.torrent
Трекер: Зарегистрирован   [ 27.09.2014 06:10 ]  
Статус: проверено (by Бишеп at 27.09.2014 06:33)
Поблагодарили: пока никто не поблагодарил...
Тип торрента: публичный - доступные источники с открытых трекеров: 
Размер: 293 MB (занимает 0.07 DVDR, для записи нужно 1 болванка DVDR/RW)
 
 


Последний раз редактировалось: 8ad_R060d (27.09.2014 06:10), всего редактировалось 3 раз(а)

8ad_R060d Пол:Муж

05-Сен-2014 13:31


27-Сен-2014 05:49

Топик был перенесен из форума Черновики в форум Indie Electronic, New Wave (Lossless)

Причина переноса: Шлифанул..
8ad_R060d
 

Яндекс.Метрика powered by Sphinx


В Н И М А Н И Е
Сайт не распространяет и не хранит электронные версии произведений, а лишь бесплатно и без коммерческой выгоды (не требуя взамен платы,
SMS и т.д.) предоставляет доступ к создаваемому пользователями каталогу ссылок на торрент-файлы, которые содержат только списки хеш-сумм.
Убедительная просьба с жалобами обращаться напрямую к пользователю, разместившему торрент файл.

Вверх