Loading...
Error

(Acid Jazz, Funk) Down To The Bone - Dig It (2014) [FLAC (Image+.CUE), lossless]

Статистика раздачи
Размер:  539 MB   |    Зарегистрирован:  7 лет 7 месяцев   |    Скачан:  9 раз

Полного источника не было: 21 час

Сидов:  0  |  0 KB/s  ]   Личеров:  0  |  0 KB/s  ]

* - сиды/пиры с внешних источников

   
 
Автор Сообщение

8ad_R060d Пол:Муж

05-Фев-2015 11:29

Down To The Bone - Dig It

Жанр: Acid Jazz, Funk
Год выпуска: 2014
Источник: CD
Производитель: USA, Trippin N' Rhythm Records, TNR 69
Аудиокодек: FLAC
Тип рипа: Image+.CUE
Битрейт: lossless
Продолжительность: 01:01:47

Треклист:

01. Dropping Knowledge
02. The Bounce
03. Dig It
04. Happiness Is a Healer
05. Meteorite
06. Put a Different Spin on It
07. The Sweetness
08. Getting It Together
09. We're on the Move
10. Give Me Love
Exact Audio Copy V1.0 beta 3 from 29. August 2011

Отчёт EAC об извлечении, выполненном 29. апреля 2014, 19:47

Down To The Bone / Dig It

Дисковод: PLEXTOR DVDR PX-880SA Adapter: 1 ID: 0

Режим чтения : Достоверность
Использование точного потока : Да
Отключение кэша аудио : Да
Использование указателей C2 : Нет

Коррекция смещения при чтении : 6
Способность читать области Lead-in и Lead-out : Нет
Заполнение пропущенных сэмплов тишиной : Да
Удаление блоков с тишиной в начале и конце : Нет
При вычислениях CRC использовались нулевые сэмплы : Да
Интерфейс : Установленный внешний ASPI-интерфейс

Выходной формат : Пользовательский кодировщик
Выбранный битрейт : 1024 kBit/s
Качество : Высокий
Добавление ID3-тега : Нет
Утилита сжатия : C:\Program Files\Exact Audio Copy\FLAC\FLAC.EXE
Дополнительные параметры : -10 -V -T "ARTIST=%artist%" -T "ALBUM=%albumtitle%" -T "DATE=%year%" -T "GENRE=%genre%" -T "COMMENT=ripped by izia1956" %source%

TOC извлечённого CD

Трек | Старт | Длительность | Начальный сектор | Конечный сектор
---------------------------------------------------------------------
1 | 0:00.00 | 6:29.47 | 0 | 29221
2 | 6:29.47 | 5:37.31 | 29222 | 54527
3 | 12:07.03 | 7:47.15 | 54528 | 89567
4 | 19:54.18 | 6:23.09 | 89568 | 118301
5 | 26:17.27 | 5:41.03 | 118302 | 143879
6 | 31:58.30 | 6:34.66 | 143880 | 173495
7 | 38:33.21 | 5:34.29 | 173496 | 198574
8 | 44:07.50 | 5:53.74 | 198575 | 225123
9 | 50:01.49 | 5:34.11 | 225124 | 250184
10 | 55:35.60 | 6:11.62 | 250185 | 278071

Характеристики диапазона извлечения и сообщения об ошибках

Выбранный диапазон

Имя файла D:\BitComet\Down To The Bone - Dig It (2014)(flac)\Down To The Bone - Dig It.wav

Пиковый уровень 98.1 %
Скорость извлечения 2.9 X
Качество диапазона 100.0 %
CRC теста BE484E0D
CRC копии BE484E0D
Копирование... OK

Ошибок не произошло

AccurateRip: сводка

Трек 1 отсутствует в базе данных
Трек 2 отсутствует в базе данных
Трек 3 отсутствует в базе данных
Трек 4 отсутствует в базе данных
Трек 5 отсутствует в базе данных
Трек 6 отсутствует в базе данных
Трек 7 отсутствует в базе данных
Трек 8 отсутствует в базе данных
Трек 9 отсутствует в базе данных
Трек 10 отсутствует в базе данных

Ни одного трека нет в базе AccurateRip

Конец отчёта

==== Контрольная сумма отчёта 96120F10EA7DD2FE9F7042B89138B2E1C70CE1C0E985183269FA27A87BE99BCB ====
REM GENRE "Acid Jazz/Funk"
REM DATE 2014
REM DISCID 8A0E7B0A
REM COMMENT "ExactAudioCopy v1.0b3"
PERFORMER "Down To The Bone"
TITLE "Dig It"
FILE "Down To The Bone - Dig It.flac" WAVE
TRACK 01 AUDIO
TITLE "Dropping Knowledge"
PERFORMER "Down To The Bone"
INDEX 01 00:00:00
TRACK 02 AUDIO
TITLE "The Bounce"
PERFORMER "Down To The Bone"
INDEX 01 06:29:47
TRACK 03 AUDIO
TITLE "Dig It"
PERFORMER "Down To The Bone"
INDEX 01 12:07:03
TRACK 04 AUDIO
TITLE "Happiness Is A Healer"
PERFORMER "Down To The Bone"
INDEX 01 19:54:18
TRACK 05 AUDIO
TITLE "Meteorite"
PERFORMER "Down To The Bone"
INDEX 01 26:17:27
TRACK 06 AUDIO
TITLE "Put A Different Spin On It"
PERFORMER "Down To The Bone"
INDEX 00 31:58:07
INDEX 01 31:58:30
TRACK 07 AUDIO
TITLE "The Sweetness"
PERFORMER "Down To The Bone"
INDEX 01 38:33:21
TRACK 08 AUDIO
TITLE "Getting It Together"
PERFORMER "Down To The Bone"
INDEX 01 44:07:50
TRACK 09 AUDIO
TITLE "We're On The Move"
PERFORMER "Down To The Bone"
INDEX 00 50:01:15
INDEX 01 50:01:49
TRACK 10 AUDIO
TITLE "Give Me Love"
PERFORMER "Down To The Bone"
INDEX 01 55:35:60

Этот торрент недоступен для скачивания без регистрации, однако доступен по публичной magnet-ссылке (источники с публичных трекеров). Перед использованием ссылки прочтите, пожалуйста Пользовательское соглашение, а также как можно дольше оставайтесь на раздаче! Для того, чтобы скачать сам торрент-файл (который видит больше источников), а также для того, чтобы поблагодарить релизера, вам необходимо зарегистрироваться. Если регистрироваться лень - вы можете также попробовать скачать релиз по нашим партнерским ссылкам ниже. Кроме того, зарегистрированным пользователям не показывается всплывающая реклама при скачивании.

[underverse.su].t49292.torrent
Трекер: Зарегистрирован   [ 05.02.2015 11:29 ]  
Статус: проверено (by Бишеп at 05.02.2015 13:15)
Поблагодарили: 1 человек
Тип торрента: публичный - доступные источники с открытых трекеров: 
Размер: 539 MB (занимает 0.12 DVDR, для записи нужно 1 болванка DVDR/RW)
 
 

Яндекс.Метрика powered by Sphinx


В Н И М А Н И Е
Сайт не распространяет и не хранит электронные версии произведений, а лишь бесплатно и без коммерческой выгоды (не требуя взамен платы,
SMS и т.д.) предоставляет доступ к создаваемому пользователями каталогу ссылок на торрент-файлы, которые содержат только списки хеш-сумм.
Убедительная просьба с жалобами обращаться напрямую к пользователю, разместившему торрент файл.

Вверх