Loading...
Error

(New Wave, Synthpop) Tesla Boy - Tesla Boy EP (Promo, Limited Edition) (2009) [FLAC (Tracks+.CUE), Lossless]

Статистика раздачи
Размер:  214 MB   |    Зарегистрирован:  7 лет 7 месяцев   |    Скачан:  5 раз

Полного источника не было: 1 год

Сидов:  0  |  0 KB/s  ]   Личеров:  0  |  0 KB/s  ]

* - сиды/пиры с внешних источников

   
 
Автор Сообщение

Бишеп Пол:Муж

08-Фев-2015 17:42

Tesla Boy - Tesla Boy EP

Жанр: New Wave, Synthpop
Год выпуска: 2009
Источник: CD
Производитель диска: Not On Label
Аудиокодек: FLAC
Тип рипа: Tracks+.CUE
Битрейт аудио: lossless
Продолжительность: 00:27:45


Треклист:
01. Spirit Of The Night
02. Electric Lady
03. Fire
04. Neon Love
05. Runaway Man

Exact Audio Copy V0.99 prebeta 5 from 4. May 2009

EAC extraction logfile from 25. May 2009, 19:18

Tesla Boy / Tesla Boy

Used drive : _NEC DVD_RW ND-4550A Adapter: 0 ID: 0

Read mode : Secure
Utilize accurate stream : Yes
Defeat audio cache : Yes
Make use of C2 pointers : No

Read offset correction : 48
Overread into Lead-In and Lead-Out : No
Fill up missing offset samples with silence : Yes
Delete leading and trailing silent blocks : No
Null samples used in CRC calculations : No
Used interface : Native Win32 interface for Win NT & 2000
Gap handling : Appended to previous track

Used output format : User Defined Encoder
Selected bitrate : 768 kBit/s
Quality : High
Add ID3 tag : No
Command line compressor : C:\Program Files\Exact Audio Copy\FLAC\FLAC.EXE
Additional command line options : -V -8 -T "artist=%a" -T "title=%t" -T "album=%g" -T "date=%y" -T "tracknumber=%n" -T "genre=%m" %s

TOC of the extracted CD

Track | Start | Length | Start sector | End sector
---------------------------------------------------------
1 | 0:00.00 | 4:56.00 | 0 | 22199
2 | 4:56.00 | 5:23.14 | 22200 | 46438
3 | 10:19.14 | 4:32.01 | 46439 | 66839
4 | 14:51.15 | 7:14.00 | 66840 | 99389
5 | 22:05.15 | 5:59.70 | 99390 | 126384

Track 1

Filename D:\Music\Electro\Tesla Boy EP (demo)\EP FLAC\Tesla Boy - 2009 - Tesla Boy\01 - Spirit of the Night.wav

Pre-gap length 0:00:02.00

Peak level 99.5 %
Track quality 100.0 %
Test CRC E8158EDD
Copy CRC E8158EDD
Copy OK

Track 2

Filename D:\Music\Electro\Tesla Boy EP (demo)\EP FLAC\Tesla Boy - 2009 - Tesla Boy\02 - Electric Lady.wav

Pre-gap length 0:00:02.00

Peak level 99.5 %
Track quality 100.0 %
Test CRC 88740154
Copy CRC 88740154
Copy OK

Track 3

Filename D:\Music\Electro\Tesla Boy EP (demo)\EP FLAC\Tesla Boy - 2009 - Tesla Boy\03 - Fire.wav

Pre-gap length 0:00:02.00

Peak level 100.0 %
Track quality 100.0 %
Test CRC DFDF943C
Copy CRC DFDF943C
Copy OK

Track 4

Filename D:\Music\Electro\Tesla Boy EP (demo)\EP FLAC\Tesla Boy - 2009 - Tesla Boy\04 - Neon Love.wav

Pre-gap length 0:00:02.00

Peak level 100.0 %
Track quality 99.9 %
Test CRC ED3413A0
Copy CRC ED3413A0
Copy OK

Track 5

Filename D:\Music\Electro\Tesla Boy EP (demo)\EP FLAC\Tesla Boy - 2009 - Tesla Boy\05 - Runaway Man.wav

Pre-gap length 0:00:02.00

Peak level 100.0 %
Track quality 100.0 %
Test CRC 6B017BDF
Copy CRC 6B017BDF
Copy OK

No errors occurred

End of status report

REM GENRE
REM DATE
REM DISCID 3F069505
PERFORMER "Tesla Boy"
TITLE "Tesla Boy"
FILE "01 - Spirit of the Night.wav" WAVE
TRACK 01 AUDIO
TITLE "Spirit of the Night"
PERFORMER "Tesla Boy"
INDEX 01 00:00:00
TRACK 02 AUDIO
TITLE "Electric Lady"
PERFORMER "Tesla Boy"
INDEX 00 04:54:00
FILE "02 - Electric Lady.wav" WAVE
INDEX 01 00:00:00
TRACK 03 AUDIO
TITLE "Fire"
PERFORMER "Tesla Boy"
INDEX 00 05:21:14
FILE "03 - Fire.wav" WAVE
INDEX 01 00:00:00
TRACK 04 AUDIO
TITLE "Neon Love"
PERFORMER "Tesla Boy"
INDEX 00 04:30:01
FILE "04 - Neon Love.wav" WAVE
INDEX 01 00:00:00
TRACK 05 AUDIO
TITLE "Runaway Man"
PERFORMER "Tesla Boy"
INDEX 00 07:12:00
FILE "05 - Runaway Man.wav" WAVE
INDEX 01 00:00:00

Этот торрент недоступен для скачивания без регистрации, однако доступен по публичной magnet-ссылке (источники с публичных трекеров). Перед использованием ссылки прочтите, пожалуйста Пользовательское соглашение, а также как можно дольше оставайтесь на раздаче! Для того, чтобы скачать сам торрент-файл (который видит больше источников), а также для того, чтобы поблагодарить релизера, вам необходимо зарегистрироваться. Если регистрироваться лень - вы можете также попробовать скачать релиз по нашим партнерским ссылкам ниже. Кроме того, зарегистрированным пользователям не показывается всплывающая реклама при скачивании.

[underverse.su].t49541.torrent
Трекер: Зарегистрирован   [ 08.02.2015 17:42 ]  
Статус: проверено (by Бишеп at 08.02.2015 17:42)
Поблагодарили: пока никто не поблагодарил...
Тип торрента: публичный - доступные источники с открытых трекеров: 
Размер: 214 MB (занимает 0.05 DVDR, для записи нужно 1 болванка DVDR/RW)
 
 

Яндекс.Метрика powered by Sphinx


В Н И М А Н И Е
Сайт не распространяет и не хранит электронные версии произведений, а лишь бесплатно и без коммерческой выгоды (не требуя взамен платы,
SMS и т.д.) предоставляет доступ к создаваемому пользователями каталогу ссылок на торрент-файлы, которые содержат только списки хеш-сумм.
Убедительная просьба с жалобами обращаться напрямую к пользователю, разместившему торрент файл.

Вверх