Loading...
Error

(Experimental, Electronic) Eraldo Bernocchi, Prakash Sontakke - Invisible Strings (2016) [FLAC (Image+.CUE), lossless]

Статистика раздачи
Размер:  246 MB   |    Зарегистрирован:  5 лет 9 месяцев   |    Скачан:  2 раза
Сидов:  1  |  0 KB/s  ]   Личеров:  0  |  0 KB/s  ]

* - сиды/пиры с внешних источников

   
 
Автор Сообщение

Darkferse Пол:Жен

23-Дек-2016 17:20

Eraldo Bernocchi, Prakash Sontakke - Invisible Strings

Жанр: Experimental, Electronic
Страна: UK
Год выпуска: 2016
Источник: CD
Производитель: RareNoise Records (RNR069)
Аудиокодек: FLAC
Тип рипа: Image+.CUE
Битрейт: lossless
Продолжительность: 00:48:49

Треклист:

01. The Last Emperor Walked Alone (05:02)
02. Will You Stay (05:41)
03. From Star To Star (05:47)
04. The Invisible Ferry (05:48)
05. Sublime Skies (04:39)
06. Bangalor Electric (06:08)
07. Purple Yellow (05:07)
08. Walking Backwards Again (05:56)
09. The Unsaid (04:45)

Код:

Exact Audio Copy V1.0 beta 2 from 29. April 2011

EAC extraction logfile from 21. December 2016, 20:16

Eraldo Bernocchi, Prakash Sontakke / Invisible Strings

Used drive  : Optiarc DVD RW AD-5280S   Adapter: 1  ID: 1

Read mode               : Secure
Utilize accurate stream : Yes
Defeat audio cache      : Yes
Make use of C2 pointers : No

Read offset correction                      : 48
Overread into Lead-In and Lead-Out          : No
Fill up missing offset samples with silence : Yes
Delete leading and trailing silent blocks   : No
Null samples used in CRC calculations       : Yes
Used interface                              : Installed external ASPI interface

Used output format              : User Defined Encoder
Selected bitrate                : 128 kBit/s
Quality                         : High
Add ID3 tag                     : No
Command line compressor         : C:\Program Files\FLAC\flac.exe
Additional command line options : -V -8 -T "Genre=%genre%" -T "Artist=%artist%" -T "Title=%title%" -T "Album=%albumtitle%" -T "Date=%year%" -T "Tracknumber=%tracknr%" -T "Comment=%comment%" %source%

TOC of the extracted CD

     Track |   Start  |  Length  | Start sector | End sector
    ---------------------------------------------------------
        1  |  0:00.00 |  5:01.37 |         0    |    22611
        2  |  5:01.37 |  5:40.69 |     22612    |    48180
        3  | 10:42.31 |  5:46.26 |     48181    |    74156
        4  | 16:28.57 |  5:47.18 |     74157    |   100199
        5  | 22:16.00 |  4:38.61 |    100200    |   121110
        6  | 26:54.61 |  6:07.21 |    121111    |   148656
        7  | 33:02.07 |  5:06.21 |    148657    |   171627
        8  | 38:08.28 |  5:55.32 |    171628    |   198284
        9  | 44:03.60 |  4:44.71 |    198285    |   219655

Range status and errors

Selected range

     Filename C:\Eraldo Bernocchi, Prakash Sontakke (2016) - Invisible Strings\Eraldo Bernocchi, Prakash Sontakke (2016) - Invisible Strings.wav

     Peak level 100.0 %
     Extraction speed 3.9 X
     Range quality 100.0 %
     Test CRC 13235732
     Copy CRC 13235732
     Copy OK

No errors occurred

AccurateRip summary

Track  1  not present in database
Track  2  not present in database
Track  3  not present in database
Track  4  not present in database
Track  5  not present in database
Track  6  not present in database
Track  7  not present in database
Track  8  not present in database
Track  9  not present in database

None of the tracks are present in the AccurateRip database

End of status report

==== Log checksum 8F13E369DFDFE4E0D217D8843DDA0907CF07E652A6070EF88D13FB032B83DE38 ====

Код:

REM GENRE Electronic
REM DATE 2016
REM DISCID 790B7009
REM COMMENT "ExactAudioCopy v1.0b2"
CATALOG 5060197761028
PERFORMER "Eraldo Bernocchi, Prakash Sontakke"
TITLE "Invisible Strings"
FILE "Eraldo Bernocchi, Prakash Sontakke (2016) - Invisible Strings.flac" WAVE
  TRACK 01 AUDIO
    TITLE "The Last Emperor Walked Alone"
    PERFORMER "Eraldo Bernocchi, Prakash Sontakke"
    ISRC GBYNS1600634
    INDEX 01 00:00:00
  TRACK 02 AUDIO
    TITLE "Will You Stay"
    PERFORMER "Eraldo Bernocchi, Prakash Sontakke"
    ISRC GBYNS1600635
    INDEX 00 04:59:37
    INDEX 01 05:01:37
  TRACK 03 AUDIO
    TITLE "From Star To Star"
    PERFORMER "Eraldo Bernocchi, Prakash Sontakke"
    ISRC GBYNS1600636
    INDEX 00 10:40:31
    INDEX 01 10:42:31
  TRACK 04 AUDIO
    TITLE "The Invisible Ferry"
    PERFORMER "Eraldo Bernocchi, Prakash Sontakke"
    ISRC GBYNS1600637
    INDEX 00 16:26:57
    INDEX 01 16:28:57
  TRACK 05 AUDIO
    TITLE "Sublime Skies"
    PERFORMER "Eraldo Bernocchi, Prakash Sontakke"
    ISRC GBYNS1600638
    INDEX 00 22:14:00
    INDEX 01 22:16:00
  TRACK 06 AUDIO
    TITLE "Bangalor Electric"
    PERFORMER "Eraldo Bernocchi, Prakash Sontakke"
    ISRC GBYNS1600639
    INDEX 00 26:52:61
    INDEX 01 26:54:61
  TRACK 07 AUDIO
    TITLE "Purple Yellow"
    PERFORMER "Eraldo Bernocchi, Prakash Sontakke"
    ISRC GBYNS1600640
    INDEX 00 33:00:07
    INDEX 01 33:02:07
  TRACK 08 AUDIO
    TITLE "Walking Backwards Again"
    PERFORMER "Eraldo Bernocchi, Prakash Sontakke"
    ISRC GBYNS1600641
    INDEX 00 38:06:28
    INDEX 01 38:08:28
  TRACK 09 AUDIO
    TITLE "The Unsaid"
    PERFORMER "Eraldo Bernocchi, Prakash Sontakke"
    ISRC GBYNS1600642
    INDEX 00 44:01:60
    INDEX 01 44:03:60
rarenoiserecords.com

Этот торрент недоступен для скачивания без регистрации, однако доступен по публичной magnet-ссылке (источники с публичных трекеров). Перед использованием ссылки прочтите, пожалуйста Пользовательское соглашение, а также как можно дольше оставайтесь на раздаче! Для того, чтобы скачать сам торрент-файл (который видит больше источников), а также для того, чтобы поблагодарить релизера, вам необходимо зарегистрироваться. Если регистрироваться лень - вы можете также попробовать скачать релиз по нашим партнерским ссылкам ниже. Кроме того, зарегистрированным пользователям не показывается всплывающая реклама при скачивании.

[underverse.me].t75975.torrent
Трекер: Зарегистрирован   [ 23.12.2016 17:20 ]  
Статус: проверено (by Бишеп at 23.12.2016 17:55)
Поблагодарили: 1 человек
Тип торрента: публичный - доступные источники с открытых трекеров: 
Размер: 246 MB (занимает 0.05 DVDR, для записи нужно 1 болванка DVDR/RW)
 
 

Яндекс.Метрика powered by Sphinx


В Н И М А Н И Е
Сайт не распространяет и не хранит электронные версии произведений, а лишь бесплатно и без коммерческой выгоды (не требуя взамен платы,
SMS и т.д.) предоставляет доступ к создаваемому пользователями каталогу ссылок на торрент-файлы, которые содержат только списки хеш-сумм.
Убедительная просьба с жалобами обращаться напрямую к пользователю, разместившему торрент файл.

Вверх