Loading...
Error

(Neo-Classical, Neofolk, Ethereal) Hexperos - Discography (2007-2016) [FLAC (Image+.CUE), lossless]

Статистика раздачи
Размер:  1.08 GB   |    Зарегистрирован:  5 лет 5 месяцев   |    Скачан:  4 раза

Полного источника не было: 9 месяцев

Сидов:  0  |  0 KB/s  ]   Личеров:  0  |  0 KB/s  ]

* - сиды/пиры с внешних источников

   
 
Автор Сообщение

Darkferse Пол:Жен

04-Апр-2017 17:21

Hexperos - Discography

Жанр: Neo-Classical, Neofolk, Ethereal
Страна: Italy
Год выпуска: 2007-2016
Источник: CD
Аудиокодек: FLAC
Тип рипа: Image+.CUE
Битрейт: lossless
Продолжительность: 02:44:59
Hexperos - новый проект сопрано Алессандры Сантовито (одной из основателей готик-этериального дуэта Gothica) и Франческо Форгионе (контрабас и клавишные). Как и в предыдущих своих проектах, Алессандра пригласила хороших музыкантов, таких как арфистка Francesca Romana Di Nicola и виолончелисты Domenico Mancini и Alessandro Pensa. Алессандра - сопрано, но благодаря обширному опыту может петь в различных манерах, так, что ее голос, как и музыка, изменяется от востчного до североевропейского стиля, от древних жанров до современных. Hexperos это музыка любви и мистерии.
Название Hexperos происходит от Hesperides и Hesperos - имен первой звезды, зажигающейся в сумерках. Это звезда Афродиты, богини любви. Символ этой звезды предстает нам на поперечном срезе яблока. Hesperides это и мифы о дереве с золотыми яблоками, поющими голосами сирен…

Состав:
Alessandra Santovito - вокал, флейта
Francesco Forgione - контрабас, гитара, клавишные
Francesca Romana Di Nicola - арфа
Domenico Mancini - виолончель
Alessandro Pensa - виолончель

Лейбл: In the Morningside Records (Morning 025)
Продолжительность: 00:58:10

01. Walking Roots (01:41)
02. Hesperos (05:18)
03. The Garden Of The Hesperides (02:52)
04. The Magnificence Of The Night (03:15)
05. Rime Glitters In The Sun (03:14)
06. The Warm Whisper Of The Wind (04:36)
07. Artemisia (03:01)
08. The Call Of The Ibis (03:38)
09. Ritual (03:50)
10. Loto Nero (04:03)
11. Nana (01:41)
12. Winter Rhymes (02:18)
13. Ave Maria (02:54)
14. Walking Roots II (02:05)
15. Elettras Lullaby (bonus track) (04:11)
16. The Magic Mountain (bonus track) (03:33)
17. Rime Glitters In The Sun II (bonus track) (03:04)
18. The Warm Whisper Of The Wind II (bonus track) (03:05)

Код:

Exact Audio Copy V1.1 from 23. June 2015

EAC extraction logfile from 4. March 2017, 14:56

Hexperos / The Garden Of The Hesperides (Remastered)

Used drive  : HP      DVD Writer 1170d   Adapter: 1  ID: 1

Read mode               : Secure
Utilize accurate stream : Yes
Defeat audio cache      : Yes
Make use of C2 pointers : No

Read offset correction                      : 6
Overread into Lead-In and Lead-Out          : No
Fill up missing offset samples with silence : Yes
Delete leading and trailing silent blocks   : No
Null samples used in CRC calculations       : Yes
Used interface                              : Native Win32 interface for Win NT & 2000

Used output format              : User Defined Encoder
Selected bitrate                : 1024 kBit/s
Quality                         : High
Add ID3 tag                     : No
Command line compressor         : C:\Program Files (x86)\Exact Audio Copy\Flac\flac.exe
Additional command line options : -V -8 -T "Date=%year%" -T "Genre=%genre%" %source%

TOC of the extracted CD

     Track |   Start  |  Length  | Start sector | End sector
    ---------------------------------------------------------
        1  |  0:00.00 |  1:40.16 |         0    |     7515
        2  |  1:40.16 |  5:17.11 |      7516    |    31301
        3  |  6:57.27 |  2:51.54 |     31302    |    44180
        4  |  9:49.06 |  3:14.46 |     44181    |    58776
        5  | 13:03.52 |  3:13.23 |     58777    |    73274
        6  | 16:17.00 |  4:35.24 |     73275    |    93923
        7  | 20:52.24 |  3:00.53 |     93924    |   107476
        8  | 23:53.02 |  3:37.06 |    107477    |   123757
        9  | 27:30.08 |  3:49.46 |    123758    |   140978
       10  | 31:19.54 |  4:02.29 |    140979    |   159157
       11  | 35:22.08 |  1:40.02 |    159158    |   166659
       12  | 37:02.10 |  2:17.57 |    166660    |   176991
       13  | 39:19.67 |  2:53.44 |    176992    |   190010
       14  | 42:13.36 |  2:04.42 |    190011    |   199352
       15  | 44:18.03 |  4:10.55 |    199353    |   218157
       16  | 48:28.58 |  3:32.37 |    218158    |   234094
       17  | 52:01.20 |  3:03.31 |    234095    |   247850
       18  | 55:04.51 |  3:04.31 |    247851    |   261681

Range status and errors

Selected range

     Filename C:\EAC\Ungern666\Hexperos - The Garden Of The Hesperides (Remastered).wav

     Peak level 100.0 %
     Extraction speed 7.4 X
     Range quality 100.0 %
     Test CRC 7E511D26
     Copy CRC 7E511D26
     Copy OK

No errors occurred

AccurateRip summary

Track  1  not present in database
Track  2  not present in database
Track  3  not present in database
Track  4  not present in database
Track  5  not present in database
Track  6  not present in database
Track  7  not present in database
Track  8  not present in database
Track  9  not present in database
Track 10  not present in database
Track 11  not present in database
Track 12  not present in database
Track 13  not present in database
Track 14  not present in database
Track 15  not present in database
Track 16  not present in database
Track 17  not present in database
Track 18  not present in database

None of the tracks are present in the AccurateRip database

End of status report

---- CUETools DB Plugin V2.1.6

[CTDB TOCID: In7efe6ZXrvjJnW8fsBd2exypFw-] disk not present in database
Submit result: In7efe6ZXrvjJnW8fsBd2exypFw- has been uploaded

==== Log checksum 3C1C86D79F26B3D7626231D1EAF78E417E89A368E28A2D1D226FC0184138BA36 ====

Код:

REM DATE 2016
REM DISCID E50DA112
REM COMMENT "ExactAudioCopy v1.1"
PERFORMER "Hexperos"
TITLE "The Garden Of The Hesperides (Remastered)"
FILE "Hexperos - The Garden Of The Hesperides (Remastered).flac" WAVE
  TRACK 01 AUDIO
    TITLE "Walking Roots"
    PERFORMER "Hexperos"
    INDEX 01 00:00:00
  TRACK 02 AUDIO
    TITLE "Hesperos"
    PERFORMER "Hexperos"
    INDEX 01 01:40:16
  TRACK 03 AUDIO
    TITLE "The Garden Of The Hesperides"
    PERFORMER "Hexperos"
    INDEX 01 06:57:27
  TRACK 04 AUDIO
    TITLE "The Magnificence Of The Night"
    PERFORMER "Hexperos"
    INDEX 01 09:49:06
  TRACK 05 AUDIO
    TITLE "Rime Glitters In The Sun"
    PERFORMER "Hexperos"
    INDEX 01 13:03:52
  TRACK 06 AUDIO
    TITLE "The Warm Whisper Of The Wind"
    PERFORMER "Hexperos"
    INDEX 01 16:17:00
  TRACK 07 AUDIO
    TITLE "Artemisia"
    PERFORMER "Hexperos"
    INDEX 01 20:52:24
  TRACK 08 AUDIO
    TITLE "The Call Of The Ibis"
    PERFORMER "Hexperos"
    INDEX 01 23:53:02
  TRACK 09 AUDIO
    TITLE "Ritual"
    PERFORMER "Hexperos"
    INDEX 01 27:30:08
  TRACK 10 AUDIO
    TITLE "Loto Nero"
    PERFORMER "Hexperos"
    INDEX 01 31:19:54
  TRACK 11 AUDIO
    TITLE "Nana"
    PERFORMER "Hexperos"
    INDEX 01 35:22:08
  TRACK 12 AUDIO
    TITLE "Winter Rhymes"
    PERFORMER "Hexperos"
    INDEX 01 37:02:10
  TRACK 13 AUDIO
    TITLE "Ave Maria"
    PERFORMER "Hexperos"
    INDEX 01 39:19:67
  TRACK 14 AUDIO
    TITLE "Walking Roots II"
    PERFORMER "Hexperos"
    INDEX 01 42:13:36
  TRACK 15 AUDIO
    TITLE "Elettras Lullaby (bonus track)"
    PERFORMER "Hexperos"
    INDEX 01 44:18:03
  TRACK 16 AUDIO
    TITLE "The Magic Mountain (bonus track)"
    PERFORMER "Hexperos"
    INDEX 01 48:28:58
  TRACK 17 AUDIO
    TITLE "Rime Glitters In The Sun II (bonus track)"
    PERFORMER "Hexperos"
    INDEX 01 52:01:20
  TRACK 18 AUDIO
    TITLE "The Warm Whisper Of The Wind II (bonus track)"
    PERFORMER "Hexperos"
    INDEX 01 55:04:51
Лейбл: Equilibrium Music (EQM024)
Продолжительность: 00:47:47

01. The Fairy Appears (01:57)
02. Queen Mab (03:51)
03. El Velo Azul (03:40)
04. Moon Spell (02:45)
05. Summatem Deam (03:58)
06. Diadem Of The Night (05:36)
07. Summoning Of The Artists (03:18)
08. A Reason To live (04:25)
09. Nocturne (02:35)
10. Le lacrime Di Proserpina (02:18)
11. A Forest (04:18)
12. A Midsummer Night's Dream (01:58)
13. Time Of Spirit (05:03)
14. Asturiana (02:12)

Код:

Exact Audio Copy V1.1 from 23. June 2015

EAC extraction logfile from 4. March 2017, 15:18

Hexperos / The Veil Of Queen Mab

Used drive  : HP      DVD Writer 1170d   Adapter: 1  ID: 1

Read mode               : Secure
Utilize accurate stream : Yes
Defeat audio cache      : Yes
Make use of C2 pointers : No

Read offset correction                      : 6
Overread into Lead-In and Lead-Out          : No
Fill up missing offset samples with silence : Yes
Delete leading and trailing silent blocks   : No
Null samples used in CRC calculations       : Yes
Used interface                              : Native Win32 interface for Win NT & 2000

Used output format              : User Defined Encoder
Selected bitrate                : 1024 kBit/s
Quality                         : High
Add ID3 tag                     : No
Command line compressor         : C:\Program Files (x86)\Exact Audio Copy\Flac\flac.exe
Additional command line options : -V -8 -T "Date=%year%" -T "Genre=%genre%" %source%

TOC of the extracted CD

     Track |   Start  |  Length  | Start sector | End sector
    ---------------------------------------------------------
        1  |  0:00.00 |  1:56.30 |         0    |     8729
        2  |  1:56.30 |  3:50.70 |      8730    |    26049
        3  |  5:47.25 |  3:39.19 |     26050    |    42493
        4  |  9:26.44 |  2:44.20 |     42494    |    54813
        5  | 12:10.64 |  3:57.05 |     54814    |    72593
        6  | 16:07.69 |  5:35.29 |     72594    |    97747
        7  | 21:43.23 |  3:17.69 |     97748    |   112591
        8  | 25:01.17 |  4:24.53 |    112592    |   132444
        9  | 29:25.70 |  2:34.40 |    132445    |   144034
       10  | 32:00.35 |  2:17.38 |    144035    |   154347
       11  | 34:17.73 |  4:17.74 |    154348    |   173696
       12  | 38:35.72 |  1:57.49 |    173697    |   182520
       13  | 40:33.46 |  5:02.05 |    182521    |   205175
       14  | 45:35.51 |  2:11.11 |    205176    |   215011

Range status and errors

Selected range

     Filename C:\EAC\Ungern666\Hexperos - The Veil Of Queen Mab.wav

     Peak level 96.6 %
     Extraction speed 5.4 X
     Range quality 99.9 %
     Test CRC DD6DDBB8
     Copy CRC DD6DDBB8
     Copy OK

No errors occurred

AccurateRip summary

Track  1  accurately ripped (confidence 4)  [1E24E31D]  (AR v2)
Track  2  accurately ripped (confidence 4)  [851AF6D8]  (AR v2)
Track  3  accurately ripped (confidence 4)  [0D817027]  (AR v2)
Track  4  accurately ripped (confidence 4)  [3328E377]  (AR v2)
Track  5  accurately ripped (confidence 4)  [7706F092]  (AR v2)
Track  6  accurately ripped (confidence 4)  [D84F393F]  (AR v2)
Track  7  accurately ripped (confidence 4)  [C0C9539B]  (AR v2)
Track  8  accurately ripped (confidence 4)  [757D3C67]  (AR v2)
Track  9  accurately ripped (confidence 4)  [11CBC751]  (AR v2)
Track 10  accurately ripped (confidence 4)  [B70C3187]  (AR v2)
Track 11  accurately ripped (confidence 4)  [B1927CC2]  (AR v2)
Track 12  accurately ripped (confidence 4)  [F98D8180]  (AR v2)
Track 13  accurately ripped (confidence 4)  [4DE745DE]  (AR v2)
Track 14  accurately ripped (confidence 4)  [B5386507]  (AR v2)

All tracks accurately ripped

End of status report

---- CUETools DB Plugin V2.1.6

[CTDB TOCID: ldj0fbyHIi4h9GM.uYOVivyLjPM-] found
Submit result: ldj0fbyHIi4h9GM.uYOVivyLjPM- has been confirmed
Track | CTDB Status
  1   | (2/2) Accurately ripped
  2   | (2/2) Accurately ripped
  3   | (2/2) Accurately ripped
  4   | (2/2) Accurately ripped
  5   | (2/2) Accurately ripped
  6   | (2/2) Accurately ripped
  7   | (2/2) Accurately ripped
  8   | (2/2) Accurately ripped
  9   | (2/2) Accurately ripped
 10   | (2/2) Accurately ripped
 11   | (2/2) Accurately ripped
 12   | (2/2) Accurately ripped
 13   | (2/2) Accurately ripped
 14   | (2/2) Accurately ripped

==== Log checksum 5827C00A1DA9E7091D3E3638B665FC8C1EC94ABAA1D5641BD47E5C31C5147009 ====

Код:

REM DATE 2010
REM DISCID C60B320E
REM COMMENT "ExactAudioCopy v1.1"
PERFORMER "Hexperos"
TITLE "The Veil Of Queen Mab"
FILE "Hexperos - The Veil Of Queen Mab.flac" WAVE
  TRACK 01 AUDIO
    TITLE "The Fairy Appears"
    PERFORMER "Hexperos"
    INDEX 01 00:00:00
  TRACK 02 AUDIO
    TITLE "Queen Mab"
    PERFORMER "Hexperos"
    INDEX 01 01:56:30
  TRACK 03 AUDIO
    TITLE "El Velo Azul"
    PERFORMER "Hexperos"
    INDEX 01 05:47:25
  TRACK 04 AUDIO
    TITLE "Moon Spell"
    PERFORMER "Hexperos"
    INDEX 01 09:26:44
  TRACK 05 AUDIO
    TITLE "Summatem Deam"
    PERFORMER "Hexperos"
    INDEX 01 12:10:64
  TRACK 06 AUDIO
    TITLE "Diadem Of The Night"
    PERFORMER "Hexperos"
    INDEX 01 16:07:69
  TRACK 07 AUDIO
    TITLE "Summoning Of The Artists"
    PERFORMER "Hexperos"
    INDEX 01 21:43:23
  TRACK 08 AUDIO
    TITLE "A Reason To live"
    PERFORMER "Hexperos"
    INDEX 01 25:01:17
  TRACK 09 AUDIO
    TITLE "Nocturne"
    PERFORMER "Hexperos"
    INDEX 01 29:25:70
  TRACK 10 AUDIO
    TITLE "Le lacrime Di Proserpina"
    PERFORMER "Hexperos"
    INDEX 01 32:00:35
  TRACK 11 AUDIO
    TITLE "A Forest"
    PERFORMER "Hexperos"
    INDEX 01 34:17:73
  TRACK 12 AUDIO
    TITLE "A Midsummer Night's Dream"
    PERFORMER "Hexperos"
    INDEX 01 38:35:72
  TRACK 13 AUDIO
    TITLE "Time Of Spirit"
    PERFORMER "Hexperos"
    INDEX 01 40:33:46
  TRACK 14 AUDIO
    TITLE "Asturiana"
    PERFORMER "Hexperos"
    INDEX 01 45:35:51
Лейбл: In the Morningside Records (Morning 022)
Продолжительность: 00:53:44

01. Autumnus (04:18)
02. Lost In The Great Sea (04:56)
03. A Wish (03:23)
04. Aine's Ballad (05:19)
05. Giant's Causeway (04:32)
06. Song - She Sat And Sang Alway (04:45)
07. A Sparkle Of This Mysterious Universe (05:34)
08. To Autumn (04:59)
09. The Traveller (03:43)
10. Spring Thaw (03:12)
11. Reflection (04:03)
12. Proserpina (05:05)

Код:

Exact Audio Copy V1.1 from 23. June 2015

EAC extraction logfile from 4. March 2017, 15:40

Hexperos / Lost In The Great Sea

Used drive  : HP      DVD Writer 1170d   Adapter: 1  ID: 1

Read mode               : Secure
Utilize accurate stream : Yes
Defeat audio cache      : Yes
Make use of C2 pointers : No

Read offset correction                      : 6
Overread into Lead-In and Lead-Out          : No
Fill up missing offset samples with silence : Yes
Delete leading and trailing silent blocks   : No
Null samples used in CRC calculations       : Yes
Used interface                              : Native Win32 interface for Win NT & 2000

Used output format              : User Defined Encoder
Selected bitrate                : 1024 kBit/s
Quality                         : High
Add ID3 tag                     : No
Command line compressor         : C:\Program Files (x86)\Exact Audio Copy\Flac\flac.exe
Additional command line options : -V -8 -T "Date=%year%" -T "Genre=%genre%" %source%

TOC of the extracted CD

     Track |   Start  |  Length  | Start sector | End sector
    ---------------------------------------------------------
        1  |  0:00.00 |  4:17.13 |         0    |    19287
        2  |  4:17.13 |  4:55.74 |     19288    |    41486
        3  |  9:13.12 |  3:22.12 |     41487    |    56648
        4  | 12:35.24 |  5:18.71 |     56649    |    80569
        5  | 17:54.20 |  4:32.00 |     80570    |   100969
        6  | 22:26.20 |  4:44.33 |    100970    |   122302
        7  | 27:10.53 |  5:34.00 |    122303    |   147352
        8  | 32:44.53 |  4:58.10 |    147353    |   169712
        9  | 37:42.63 |  3:42.70 |    169713    |   186432
       10  | 41:25.58 |  3:11.04 |    186433    |   200761
       11  | 44:36.62 |  4:02.09 |    200762    |   218920
       12  | 48:38.71 |  5:04.32 |    218921    |   241752
       13  | 56:15.28 | 11:35.03 |    253153    |   305280

Range status and errors

Selected range

     Filename C:\EAC\Ungern666\Hexperos - Lost In The Great Sea.wav

     Peak level 100.0 %
     Extraction speed 5.8 X
     Range quality 99.9 %
     Test CRC 2D116C07
     Copy CRC 2D116C07
     Copy OK

No errors occurred

AccurateRip summary

Track  1  accurately ripped (confidence 3)  [B2BD7056]  (AR v2)
Track  2  accurately ripped (confidence 3)  [D36FB972]  (AR v2)
Track  3  accurately ripped (confidence 3)  [209D33AE]  (AR v2)
Track  4  accurately ripped (confidence 3)  [D8389186]  (AR v2)
Track  5  accurately ripped (confidence 3)  [155B28DD]  (AR v2)
Track  6  accurately ripped (confidence 3)  [50CDCB07]  (AR v2)
Track  7  accurately ripped (confidence 3)  [A8C96E6B]  (AR v2)
Track  8  accurately ripped (confidence 3)  [900E47DB]  (AR v2)
Track  9  accurately ripped (confidence 3)  [E835AB91]  (AR v2)
Track 10  accurately ripped (confidence 3)  [76D04A0C]  (AR v2)
Track 11  accurately ripped (confidence 3)  [FDCDEC29]  (AR v2)
Track 12  accurately ripped (confidence 3)  [353D5388]  (AR v2)

All tracks accurately ripped

End of status report

---- CUETools DB Plugin V2.1.6

[CTDB TOCID: sANjojzeDk3ukN_CZraxU5Sr37A-] found
Submit result: sANjojzeDk3ukN_CZraxU5Sr37A- has been confirmed
Track | CTDB Status
  1   | (2/2) Accurately ripped
  2   | (2/2) Accurately ripped
  3   | (2/2) Accurately ripped
  4   | (2/2) Accurately ripped
  5   | (2/2) Accurately ripped
  6   | (2/2) Accurately ripped
  7   | (2/2) Accurately ripped
  8   | (2/2) Accurately ripped
  9   | (2/2) Accurately ripped
 10   | (2/2) Accurately ripped
 11   | (2/2) Accurately ripped
 12   | (2/2) Accurately ripped

==== Log checksum 85D73E92F4840D3FE49A7368BC15187803C87F95D2329CF060257D3F9E5AE302 ====

Код:

REM GENRE Celtic
REM DATE 2014
REM DISCID CF0FE60D
REM COMMENT "ExactAudioCopy v1.1"
PERFORMER "Hexperos"
TITLE "Lost In The Great Sea"
FILE "Hexperos - Lost In The Great Sea.flac" WAVE
  TRACK 01 AUDIO
    TITLE "Autumnus"
    PERFORMER "Hexperos"
    INDEX 01 00:00:00
  TRACK 02 AUDIO
    TITLE "Lost In The Great Sea"
    PERFORMER "Hexperos"
    INDEX 01 04:17:13
  TRACK 03 AUDIO
    TITLE "A Wish"
    PERFORMER "Hexperos"
    INDEX 01 09:13:12
  TRACK 04 AUDIO
    TITLE "Aine's Ballad"
    PERFORMER "Hexperos"
    INDEX 01 12:35:24
  TRACK 05 AUDIO
    TITLE "Giant's Causeway"
    PERFORMER "Hexperos"
    INDEX 01 17:54:20
  TRACK 06 AUDIO
    TITLE "Song - She Sat And Sang Alway"
    PERFORMER "Hexperos"
    INDEX 01 22:26:20
  TRACK 07 AUDIO
    TITLE "A Sparkle Of This Mysterious Universe"
    PERFORMER "Hexperos"
    INDEX 01 27:10:53
  TRACK 08 AUDIO
    TITLE "To Autumn"
    PERFORMER "Hexperos"
    INDEX 01 32:44:53
  TRACK 09 AUDIO
    TITLE "The Traveller"
    PERFORMER "Hexperos"
    INDEX 01 37:42:63
  TRACK 10 AUDIO
    TITLE "Spring Thaw"
    PERFORMER "Hexperos"
    INDEX 01 41:25:58
  TRACK 11 AUDIO
    TITLE "Reflection"
    PERFORMER "Hexperos"
    INDEX 01 44:36:62
  TRACK 12 AUDIO
    TITLE "Proserpina"
    PERFORMER "Hexperos"
    INDEX 01 48:38:71
Продолжительность: 00:05:19
Формат: mp4
Видео: MPEG-4 AVC (H.264), 1280x720, 2496 kbps
Аудио: AAC LC 2.0, 160 kbps

Код:

General
Complete name                    : D:\Hexperos\2014 - Lost In The Great Sea\Video\Hexperos autumnus.mp4
Format                           : MPEG-4
Format profile                   : Base Media / Version 2
Codec ID                         : mp42
File size                        : 101 MiB
Duration                         : 5mn 19s
Overall bit rate                 : 2 660 Kbps
Encoded date                     : UTC 2013-12-17 09:08:24
Tagged date                      : UTC 2013-12-17 09:08:24

Video
ID                               : 1
Format                           : AVC
Format/Info                      : Advanced Video Codec
Format profile                   : High L3.1
Format settings, CABAC           : Yes
Format settings, ReFrames        : 4 frames
Codec ID                         : avc1
Codec ID/Info                    : Advanced Video Coding
Duration                         : 5mn 19s
Bit rate mode                    : Variable
Bit rate                         : 2 496 Kbps
Width                            : 1 280 pixels
Height                           : 720 pixels
Display aspect ratio             : 16/9
Frame rate mode                  : Constant
Frame rate                       : 25.000 fps
Resolution                       : 24 bits
Colorimetry                      : 4:2:0
Scan type                        : Progressive
Bits/(Pixel*Frame)               : 0.108
Stream size                      : 94.9 MiB (94%)
Encoded date                     : UTC 2013-12-17 09:08:24
Tagged date                      : UTC 2013-12-17 09:08:24

Audio
ID                               : 2
Format                           : AAC
Format/Info                      : Advanced Audio Codec
Format version                   : Version 4
Format profile                   : LC
Format settings, SBR             : No
Codec ID                         : 40
Duration                         : 5mn 18s
Bit rate mode                    : Variable
Bit rate                         : 160 Kbps
Channel(s)                       : 2 channels
Channel positions                : L R
Sampling rate                    : 48.0 KHz
Resolution                       : 16 bits
Stream size                      : 6.08 MiB (6%)
Encoded date                     : UTC 2013-12-17 09:08:24
Tagged date                      : UTC 2013-12-17 09:08:24
picpic picpic
Для увеличения картинки щелкните мышкой по превью

hexperos.com

Этот торрент недоступен для скачивания без регистрации, однако доступен по публичной magnet-ссылке (источники с публичных трекеров). Перед использованием ссылки прочтите, пожалуйста Пользовательское соглашение, а также как можно дольше оставайтесь на раздаче! Для того, чтобы скачать сам торрент-файл (который видит больше источников), а также для того, чтобы поблагодарить релизера, вам необходимо зарегистрироваться. Если регистрироваться лень - вы можете также попробовать скачать релиз по нашим партнерским ссылкам ниже. Кроме того, зарегистрированным пользователям не показывается всплывающая реклама при скачивании.

[underverse.me].t80673.torrent
Трекер: Зарегистрирован   [ 04.04.2017 17:21 ]  
Статус: проверено (by Бишеп at 05.04.2017 06:28)
Поблагодарили: пока никто не поблагодарил...
Тип торрента: публичный - доступные источники с открытых трекеров: 
Размер: 1.08 GB (занимает 0.25 DVDR, для записи нужно 1 болванка DVDR/RW)
 
 


Последний раз редактировалось: Darkferse (05.04.2017 05:55), всего редактировалось 2 раз(а)

Яндекс.Метрика powered by Sphinx


В Н И М А Н И Е
Сайт не распространяет и не хранит электронные версии произведений, а лишь бесплатно и без коммерческой выгоды (не требуя взамен платы,
SMS и т.д.) предоставляет доступ к создаваемому пользователями каталогу ссылок на торрент-файлы, которые содержат только списки хеш-сумм.
Убедительная просьба с жалобами обращаться напрямую к пользователю, разместившему торрент файл.

Вверх