Loading...
Error

(Experimental, Ambient) The Legendary Pink Dots - Festive (2016) [FLAC (Tracks+.CUE), lossless]

Статистика раздачи
Размер:  439 MB   |    Зарегистрирован:  5 лет 4 месяца   |    Скачан:  2 раза

Полного источника не было: 3 месяца 3 дня

Сидов:  0  |  0 KB/s  ]   Личеров:  0  |  0 KB/s  ]

* - сиды/пиры с внешних источников

   
 
Автор Сообщение

Darkferse Пол:Жен

13-Май-2017 11:03

The Legendary Pink Dots - Festive

Жанр: Experimental, Ambient
Год выпуска: 2016
Источник: CDr
Производитель: UK
Аудиокодек: FLAC
Тип рипа: Tracks+.CUE
Битрейт: lossless
Продолжительность: 01:42:25

Треклист:

Disk 1
1. Hypothetical Angel (11:20)
2. I Wish It Could Be Christmas Every Decade (02:24)
3. The Wall Street Spectre (15:28)
4. Pagan Place (15:30)
5. Seasonal Chill (09:28)

Код:

Exact Audio Copy V1.0 beta 6 from 9. April 2015

EAC extraction logfile from 31. August 2016, 21:39

The Legendary Pink Dots / Festive (Disc 1)

Used drive  : LITE-ON DVD+RW SOHW-802S   Adapter: 1  ID: 1

Read mode               : Secure
Utilize accurate stream : Yes
Defeat audio cache      : Yes
Make use of C2 pointers : No

Read offset correction                      : 12
Overread into Lead-In and Lead-Out          : No
Fill up missing offset samples with silence : Yes
Delete leading and trailing silent blocks   : No
Null samples used in CRC calculations       : Yes
Used interface                              : Native Win32 interface for Win NT & 2000
Gap handling                                : Appended to previous track

Used output format              : User Defined Encoder
Selected bitrate                : 1024 kBit/s
Quality                         : High
Add ID3 tag                     : No
Command line compressor         : C:\Program Files\FLAC\flac.exe
Additional command line options : -8 -V -T "ARTIST=%artist%" -T "TITLE=%title%" -T "ALBUM=%albumtitle%" -T "DATE=%year%" -T "TRACKNUMBER=%tracknr%" -T "GENRE=%genre%" -T "PERFORMER=%albuminterpret%" -T "COMPOSER=%composer%" %haslyrics%--tag-from-file=LYRICS="%lyricsfile%"%haslyrics% -T "ALBUMARTIST=%albumartist%" -T "DISCNUMBER=%cdnumber%" -T "TOTALDISCS=%totalcds%" -T "TOTALTRACKS=%numtracks%" -T "COMMENT=%comment%" %source% -o %dest%

TOC of the extracted CD

     Track |   Start  |  Length  | Start sector | End sector
    ---------------------------------------------------------
        1  |  0:00.00 | 11:20.00 |         0    |    50999
        2  | 11:20.00 |  2:24.00 |     51000    |    61799
        3  | 13:44.00 | 15:28.00 |     61800    |   131399
        4  | 29:12.00 | 15:30.18 |    131400    |   201167
        5  | 44:42.18 |  9:28.00 |    201168    |   243767

Track  1

     Filename C:\Users\kqwiet\Desktop\Music Conversions\01 - Hypothetical Angel.wav

     Pre-gap length  0:00:02.00

     Peak level 100.0 %
     Extraction speed 2.6 X
     Track quality 100.0 %
     Test CRC F349F562
     Copy CRC F349F562
     Track not present in AccurateRip database
     Copy OK

Track  2

     Filename C:\Users\kqwiet\Desktop\Music Conversions\02 - I Wish It Could Be Christmas Every Decade.wav

     Peak level 100.0 %
     Extraction speed 2.9 X
     Track quality 100.0 %
     Test CRC 9EED88F4
     Copy CRC 9EED88F4
     Track not present in AccurateRip database
     Copy OK

Track  3

     Filename C:\Users\kqwiet\Desktop\Music Conversions\03 - The Wall Street Spectre.wav

     Peak level 100.0 %
     Extraction speed 3.3 X
     Track quality 100.0 %
     Test CRC 967E7533
     Copy CRC 967E7533
     Track not present in AccurateRip database
     Copy OK

Track  4

     Filename C:\Users\kqwiet\Desktop\Music Conversions\04 - Pagan Place.wav

     Peak level 89.9 %
     Extraction speed 3.9 X
     Track quality 99.9 %
     Test CRC B64B7B6A
     Copy CRC B64B7B6A
     Track not present in AccurateRip database
     Copy OK

Track  5

     Filename C:\Users\kqwiet\Desktop\Music Conversions\05 - Seasonal Chill.wav

     Peak level 89.9 %
     Extraction speed 4.0 X
     Track quality 100.0 %
     Test CRC D8310654
     Copy CRC D8310654
     Track not present in AccurateRip database
     Copy OK

None of the tracks are present in the AccurateRip database

No errors occurred

End of status report

---- CUETools DB Plugin V2.1.6

[CTDB TOCID: p1XFvEaK69BruOoABFjXKXG0guM-] database access error: The remote name could not be resolved: 'db.cuetools.net'

==== Log checksum E794CD6A9A86383FC3C73E5C6EB903682ED23B88E63AFBB2D2A03941872F324E ====

Код:

REM GENRE Experimental
REM DATE 2016
REM DISCID 470CB205
REM COMMENT "ExactAudioCopy v1.0b6"
PERFORMER "The Legendary Pink Dots"
TITLE "Festive (Disc 1)"
FILE "01 - Hypothetical Angel.wav" WAVE
  TRACK 01 AUDIO
    TITLE "Hypothetical Angel"
    PERFORMER "The Legendary Pink Dots"
    INDEX 01 00:00:00
FILE "02 - I Wish It Could Be Christmas Every Decade.wav" WAVE
  TRACK 02 AUDIO
    TITLE "I Wish It Could Be Christmas Every Decade"
    PERFORMER "The Legendary Pink Dots"
    INDEX 01 00:00:00
FILE "03 - The Wall Street Spectre.wav" WAVE
  TRACK 03 AUDIO
    TITLE "The Wall Street Spectre"
    PERFORMER "The Legendary Pink Dots"
    INDEX 01 00:00:00
FILE "04 - Pagan Place.wav" WAVE
  TRACK 04 AUDIO
    TITLE "Pagan Place"
    PERFORMER "The Legendary Pink Dots"
    INDEX 01 00:00:00
FILE "05 - Seasonal Chill.wav" WAVE
  TRACK 05 AUDIO
    TITLE "Seasonal Chill"
    PERFORMER "The Legendary Pink Dots"
    INDEX 01 00:00:00

Disk 2
1. The Witching Hour (24:37)
2. Pink (04:45)
3. Purple (18:53)

Код:

Exact Audio Copy V1.0 beta 6 from 9. April 2015

EAC extraction logfile from 31. August 2016, 22:11

The Legendary Pink Dots / Festive (Disc 2)

Used drive  : LITE-ON DVD+RW SOHW-802S   Adapter: 1  ID: 1

Read mode               : Secure
Utilize accurate stream : Yes
Defeat audio cache      : Yes
Make use of C2 pointers : No

Read offset correction                      : 12
Overread into Lead-In and Lead-Out          : No
Fill up missing offset samples with silence : Yes
Delete leading and trailing silent blocks   : No
Null samples used in CRC calculations       : Yes
Used interface                              : Native Win32 interface for Win NT & 2000
Gap handling                                : Appended to previous track

Used output format              : User Defined Encoder
Selected bitrate                : 1024 kBit/s
Quality                         : High
Add ID3 tag                     : No
Command line compressor         : C:\Program Files\FLAC\flac.exe
Additional command line options : -8 -V -T "ARTIST=%artist%" -T "TITLE=%title%" -T "ALBUM=%albumtitle%" -T "DATE=%year%" -T "TRACKNUMBER=%tracknr%" -T "GENRE=%genre%" -T "PERFORMER=%albuminterpret%" -T "COMPOSER=%composer%" %haslyrics%--tag-from-file=LYRICS="%lyricsfile%"%haslyrics% -T "ALBUMARTIST=%albumartist%" -T "DISCNUMBER=%cdnumber%" -T "TOTALDISCS=%totalcds%" -T "TOTALTRACKS=%numtracks%" -T "COMMENT=%comment%" %source% -o %dest%

TOC of the extracted CD

     Track |   Start  |  Length  | Start sector | End sector
    ---------------------------------------------------------
        1  |  0:00.00 | 24:37.25 |         0    |   110799
        2  | 24:37.25 |  4:45.11 |    110800    |   132185
        3  | 29:22.36 | 18:52.46 |    132186    |   217131

Track  1

     Filename C:\Users\kqwiet\Desktop\Music Conversions\01 - The Witching Hour.wav

     Pre-gap length  0:00:02.00

     Peak level 97.4 %
     Extraction speed 2.9 X
     Track quality 100.0 %
     Test CRC C0AAAA37
     Copy CRC C0AAAA37
     Track not present in AccurateRip database
     Copy OK

Track  2

     Filename C:\Users\kqwiet\Desktop\Music Conversions\02 - Pink.wav

     Peak level 74.9 %
     Extraction speed 3.5 X
     Track quality 100.0 %
     Test CRC FA526B30
     Copy CRC FA526B30
     Track not present in AccurateRip database
     Copy OK

Track  3

     Filename C:\Users\kqwiet\Desktop\Music Conversions\03 - Purple.wav

     Peak level 74.9 %
     Extraction speed 3.8 X
     Track quality 100.0 %
     Test CRC DA13FD89
     Copy CRC DA13FD89
     Track not present in AccurateRip database
     Copy OK

None of the tracks are present in the AccurateRip database

No errors occurred

End of status report

---- CUETools DB Plugin V2.1.6

[CTDB TOCID: QFZxrmTS6H9iSw7iPl0KFNNT2xI-] database access error: The remote name could not be resolved: 'db.cuetools.net'

Код:

REM GENRE Experimental
REM DATE 2016
REM DISCID 290B4F03
REM COMMENT "ExactAudioCopy v1.0b6"
PERFORMER "The Legendary Pink Dots"
TITLE "Festive (Disc 2)"
FILE "01 - The Witching Hour.wav" WAVE
  TRACK 01 AUDIO
    TITLE "The Witching Hour"
    PERFORMER "The Legendary Pink Dots"
    INDEX 01 00:00:00
FILE "02 - Pink.wav" WAVE
  TRACK 02 AUDIO
    TITLE "Pink"
    PERFORMER "The Legendary Pink Dots"
    INDEX 01 00:00:00
FILE "03 - Purple.wav" WAVE
  TRACK 03 AUDIO
    TITLE "Purple"
    PERFORMER "The Legendary Pink Dots"
    INDEX 01 00:00:00

Этот торрент недоступен для скачивания без регистрации, однако доступен по публичной magnet-ссылке (источники с публичных трекеров). Перед использованием ссылки прочтите, пожалуйста Пользовательское соглашение, а также как можно дольше оставайтесь на раздаче! Для того, чтобы скачать сам торрент-файл (который видит больше источников), а также для того, чтобы поблагодарить релизера, вам необходимо зарегистрироваться. Если регистрироваться лень - вы можете также попробовать скачать релиз по нашим партнерским ссылкам ниже. Кроме того, зарегистрированным пользователям не показывается всплывающая реклама при скачивании.

[underverse.me].t82584.torrent
Трекер: Зарегистрирован   [ 13.05.2017 11:03 ]  
Статус: проверено (by Бишеп at 13.05.2017 18:43)
Поблагодарили: пока никто не поблагодарил...
Тип торрента: публичный - доступные источники с открытых трекеров: 
Размер: 439 MB (занимает 0.1 DVDR, для записи нужно 1 болванка DVDR/RW)
 
 

Яндекс.Метрика powered by Sphinx


В Н И М А Н И Е
Сайт не распространяет и не хранит электронные версии произведений, а лишь бесплатно и без коммерческой выгоды (не требуя взамен платы,
SMS и т.д.) предоставляет доступ к создаваемому пользователями каталогу ссылок на торрент-файлы, которые содержат только списки хеш-сумм.
Убедительная просьба с жалобами обращаться напрямую к пользователю, разместившему торрент файл.

Вверх