Loading...
Error

(Experimental, Electronic, New Age) Bjork - Utopia (2017) [FLAC (Tracks+.CUE), lossless]

Статистика раздачи
Размер:  450 MB   |    Зарегистрирован:  4 года 8 месяцев   |    Скачан:  7 раз

Полного источника не было: 21 час

Сидов:  0  |  0 KB/s  ]   Личеров:  0  |  0 KB/s  ]

* - сиды/пиры с внешних источников

   
 
Автор Сообщение

Darkferse Пол:Жен

03-Янв-2018 23:53

Björk - Utopia

Жанр: Experimental, Electronic, New Age
Страна: Iceland
Год выпуска: 2017
Источник: CD
Производитель: One Little Indian - 5054197926822
Аудиокодек: FLAC
Тип рипа: Tracks+.CUE
Битрейт: lossless
Продолжительность: 01:11:38

Треклист:

1. Arisen My Senses (04:59)
2. Blissing Me (05:05)
3. The Gate (06:33)
4. Utopia (04:42)
5. Body Memory (09:46)
6. Features Creatures (04:49)
7. Courtship (04:44)
8. Loss (06:51)
9. Sue Me (04:57)
10. Tabula Rasa (04:42)
11. Claimstaker (03:18)
12. Paradisa (01:44)
13. Saint (04:41)
14. Future Forever (04:47)

Код:

X Lossless Decoder version 20170729 (150.3)

XLD extraction logfile from 2017-11-24 16:23:51 +0100

Björk / Utopia

Used drive : TS8XDVDS TRANSCEND (revision 1.00)
Media type : Pressed CD

Ripper mode             : XLD Secure Ripper
Disable audio cache     : OK for the drive with a cache less than 1375KiB
Make use of C2 pointers : NO
Read offset correction  : 6
Max retry count         : 100
Gap status              : Analyzed, Appended (except HTOA)

TOC of the extracted CD
     Track |   Start  |  Length  | Start sector | End sector
    ---------------------------------------------------------
        1  | 00:00:00 | 04:59:72 |         0    |    22496
        2  | 04:59:72 | 05:05:53 |     22497    |    45424
        3  | 10:05:50 | 06:33:43 |     45425    |    74942
        4  | 16:39:18 | 04:42:56 |     74943    |    96148
        5  | 21:21:74 | 09:46:39 |     96149    |   140137
        6  | 31:08:38 | 04:49:72 |    140138    |   161884
        7  | 35:58:35 | 04:44:48 |    161885    |   183232
        8  | 40:43:08 | 06:51:35 |    183233    |   214092
        9  | 47:34:43 | 04:57:63 |    214093    |   236430
       10  | 52:32:31 | 04:42:01 |    236431    |   257581
       11  | 57:14:32 | 03:18:61 |    257582    |   272492
       12  | 60:33:18 | 01:44:72 |    272493    |   280364
       13  | 62:18:15 | 04:41:27 |    280365    |   301466
       14  | 66:59:42 | 04:47:38 |    301467    |   323029

AccurateRip Summary
    Disc not found in AccurateRip DB.

All Tracks
    Album gain               : -9.12 dB
    Peak                     : 1.000000
    Statistics
        Read error                           : 0
        Jitter error (maybe fixed)           : 0
        Retry sector count                   : 0
        Damaged sector count                 : 0

Track 01
    Filename : /Volumes/LaCie 1 DL/Björk -2015- Utopia (FLAC)/01 - Arisen My Senses.flac
    Pre-gap length : 00:02:00

    Track gain               : -8.55 dB
    Peak                     : 0.999969
    CRC32 hash (test run)    : 4F256B33
    CRC32 hash               : 4F256B33
    CRC32 hash (skip zero)   : F7887274
    AccurateRip v1 signature : 6939D523
    AccurateRip v2 signature : 0E72A031
        ->Track not present in AccurateRip database.
    Statistics
        Read error                           : 0
        Jitter error (maybe fixed)           : 0
        Retry sector count                   : 0
        Damaged sector count                 : 0

Track 02
    Filename : /Volumes/LaCie 1 DL/Björk -2015- Utopia (FLAC)/02 - Blissing Me.flac

    Track gain               : -9.01 dB
    Peak                     : 0.942932
    CRC32 hash (test run)    : 9F822821
    CRC32 hash               : 9F822821
    CRC32 hash (skip zero)   : A7639AD9
    AccurateRip v1 signature : 7A7DA7F3
    AccurateRip v2 signature : DD2368C3
        ->Track not present in AccurateRip database.
    Statistics
        Read error                           : 0
        Jitter error (maybe fixed)           : 0
        Retry sector count                   : 0
        Damaged sector count                 : 0

Track 03
    Filename : /Volumes/LaCie 1 DL/Björk -2015- Utopia (FLAC)/03 - The Gate.flac

    Track gain               : -7.59 dB
    Peak                     : 0.929199
    CRC32 hash (test run)    : C3CC41B3
    CRC32 hash               : C3CC41B3
    CRC32 hash (skip zero)   : F020AD76
    AccurateRip v1 signature : 176EB98D
    AccurateRip v2 signature : 4CB0B1CF
        ->Track not present in AccurateRip database.
    Statistics
        Read error                           : 0
        Jitter error (maybe fixed)           : 0
        Retry sector count                   : 0
        Damaged sector count                 : 0

Track 04
    Filename : /Volumes/LaCie 1 DL/Björk -2015- Utopia (FLAC)/04 - Utopia.flac

    Track gain               : -9.28 dB
    Peak                     : 1.000000
    CRC32 hash (test run)    : EE2D4F92
    CRC32 hash               : EE2D4F92
    CRC32 hash (skip zero)   : F858DA3B
    AccurateRip v1 signature : 1542A4F6
    AccurateRip v2 signature : 556ACFC0
        ->Track not present in AccurateRip database.
    Statistics
        Read error                           : 0
        Jitter error (maybe fixed)           : 0
        Retry sector count                   : 0
        Damaged sector count                 : 0

Track 05
    Filename : /Volumes/LaCie 1 DL/Björk -2015- Utopia (FLAC)/05 - Body Memory.flac

    Track gain               : -9.78 dB
    Peak                     : 0.984039
    CRC32 hash (test run)    : 5850E9E2
    CRC32 hash               : 5850E9E2
    CRC32 hash (skip zero)   : B1B92DC8
    AccurateRip v1 signature : 601EAB7D
    AccurateRip v2 signature : 0C8AB2BF
        ->Track not present in AccurateRip database.
    Statistics
        Read error                           : 0
        Jitter error (maybe fixed)           : 0
        Retry sector count                   : 0
        Damaged sector count                 : 0

Track 06
    Filename : /Volumes/LaCie 1 DL/Björk -2015- Utopia (FLAC)/06 - Features Creatures.flac

    Track gain               : -8.40 dB
    Peak                     : 0.931915
    CRC32 hash (test run)    : B3B3EC41
    CRC32 hash               : B3B3EC41
    CRC32 hash (skip zero)   : B19DCA66
    AccurateRip v1 signature : 07A09C69
    AccurateRip v2 signature : C90224B0
        ->Track not present in AccurateRip database.
    Statistics
        Read error                           : 0
        Jitter error (maybe fixed)           : 0
        Retry sector count                   : 0
        Damaged sector count                 : 0

Track 07
    Filename : /Volumes/LaCie 1 DL/Björk -2015- Utopia (FLAC)/07 - Courtship.flac

    Track gain               : -9.40 dB
    Peak                     : 1.000000
    CRC32 hash (test run)    : 979C2135
    CRC32 hash               : 979C2135
    CRC32 hash (skip zero)   : 384C6E4E
    AccurateRip v1 signature : BDE1BC8C
    AccurateRip v2 signature : 14B67412
        ->Track not present in AccurateRip database.
    Statistics
        Read error                           : 0
        Jitter error (maybe fixed)           : 0
        Retry sector count                   : 0
        Damaged sector count                 : 0

Track 08
    Filename : /Volumes/LaCie 1 DL/Björk -2015- Utopia (FLAC)/08 - Losss.flac

    Track gain               : -10.10 dB
    Peak                     : 0.998566
    CRC32 hash (test run)    : 50C5F992
    CRC32 hash               : 50C5F992
    CRC32 hash (skip zero)   : 2436C4F7
    AccurateRip v1 signature : 1536CC17
    AccurateRip v2 signature : 8D06E679
        ->Track not present in AccurateRip database.
    Statistics
        Read error                           : 0
        Jitter error (maybe fixed)           : 0
        Retry sector count                   : 0
        Damaged sector count                 : 0

Track 09
    Filename : /Volumes/LaCie 1 DL/Björk -2015- Utopia (FLAC)/09 - Sue Me.flac

    Track gain               : -9.17 dB
    Peak                     : 1.000000
    CRC32 hash (test run)    : CEB57314
    CRC32 hash               : CEB57314
    CRC32 hash (skip zero)   : DC5AAB47
    AccurateRip v1 signature : 007AF1B6
    AccurateRip v2 signature : DB49DEB1
        ->Track not present in AccurateRip database.
    Statistics
        Read error                           : 0
        Jitter error (maybe fixed)           : 0
        Retry sector count                   : 0
        Damaged sector count                 : 0

Track 10
    Filename : /Volumes/LaCie 1 DL/Björk -2015- Utopia (FLAC)/10 - Tabula Rasa.flac

    Track gain               : -8.86 dB
    Peak                     : 0.917572
    CRC32 hash (test run)    : 0429AEFE
    CRC32 hash               : 0429AEFE
    CRC32 hash (skip zero)   : F813E5A3
    AccurateRip v1 signature : BED761FA
    AccurateRip v2 signature : 3E6A01BE
        ->Track not present in AccurateRip database.
    Statistics
        Read error                           : 0
        Jitter error (maybe fixed)           : 0
        Retry sector count                   : 0
        Damaged sector count                 : 0

Track 11
    Filename : /Volumes/LaCie 1 DL/Björk -2015- Utopia (FLAC)/11 - Claimstaker.flac

    Track gain               : -8.29 dB
    Peak                     : 0.919739
    CRC32 hash (test run)    : 08A82985
    CRC32 hash               : 08A82985
    CRC32 hash (skip zero)   : E57522B8
    AccurateRip v1 signature : CA26C26C
    AccurateRip v2 signature : 1C308359
        ->Track not present in AccurateRip database.
    Statistics
        Read error                           : 0
        Jitter error (maybe fixed)           : 0
        Retry sector count                   : 0
        Damaged sector count                 : 0

Track 12
    Filename : /Volumes/LaCie 1 DL/Björk -2015- Utopia (FLAC)/12 - Paradisia.flac

    Track gain               : -2.04 dB
    Peak                     : 0.650574
    CRC32 hash (test run)    : 431296D7
    CRC32 hash               : 431296D7
    CRC32 hash (skip zero)   : 9C5B42BF
    AccurateRip v1 signature : 4B60556B
    AccurateRip v2 signature : 86C27AD7
        ->Track not present in AccurateRip database.
    Statistics
        Read error                           : 0
        Jitter error (maybe fixed)           : 0
        Retry sector count                   : 0
        Damaged sector count                 : 0

Track 13
    Filename : /Volumes/LaCie 1 DL/Björk -2015- Utopia (FLAC)/13 - Saint.flac

    Track gain               : -8.52 dB
    Peak                     : 0.964386
    CRC32 hash (test run)    : 27B39016
    CRC32 hash               : 27B39016
    CRC32 hash (skip zero)   : 3B34266C
    AccurateRip v1 signature : B107DB9C
    AccurateRip v2 signature : 2C248720
        ->Track not present in AccurateRip database.
    Statistics
        Read error                           : 0
        Jitter error (maybe fixed)           : 0
        Retry sector count                   : 0
        Damaged sector count                 : 0

Track 14
    Filename : /Volumes/LaCie 1 DL/Björk -2015- Utopia (FLAC)/14 - Future Forever.flac

    Track gain               : -7.38 dB
    Peak                     : 0.903168
    CRC32 hash (test run)    : 75EE942A
    CRC32 hash               : 75EE942A
    CRC32 hash (skip zero)   : 06989CD9
    AccurateRip v1 signature : 74915E6A
    AccurateRip v2 signature : 47AFAFAE
        ->Track not present in AccurateRip database.
    Statistics
        Read error                           : 0
        Jitter error (maybe fixed)           : 0
        Retry sector count                   : 0
        Damaged sector count                 : 0

No errors occurred

End of status report

-----BEGIN XLD SIGNATURE-----
61BBwHJJfs7yabxN5TXhPgaT6mkc_aa3hRCftCJ2QPNmH9W49yg2oxyode4TznheCqfBc0YXEa3EDci.tLSJP4rdpHi3DbyRI_L0j5a
-----END XLD SIGNATURE-----

Код:

TITLE "Utopia"
PERFORMER "Björk"
REM GENRE "Electronica"
REM DATE "2017"
REM DISCNUMBER 1
REM TOTALDISCS 1
REM DISCID A310D30E
REM REPLAYGAIN_ALBUM_GAIN -9.12 dB
REM REPLAYGAIN_ALBUM_PEAK 1.000000
FILE "01 - Arisen My Senses.flac" WAVE
  TRACK 01 AUDIO
    TITLE "Arisen My Senses"
    PERFORMER "Björk"
    ISRC GBBTF1700355
    FLAGS DCP
    REM REPLAYGAIN_TRACK_GAIN -8.55 dB
    REM REPLAYGAIN_TRACK_PEAK 0.999969
    INDEX 01 00:00:00
FILE "02 - Blissing Me.flac" WAVE
  TRACK 02 AUDIO
    TITLE "Blissing Me"
    PERFORMER "Björk"
    ISRC GBBTF1700356
    FLAGS DCP
    REM REPLAYGAIN_TRACK_GAIN -9.01 dB
    REM REPLAYGAIN_TRACK_PEAK 0.942932
    INDEX 01 00:00:00
FILE "03 - The Gate.flac" WAVE
  TRACK 03 AUDIO
    TITLE "The Gate"
    PERFORMER "Björk"
    ISRC GBBTF1700357
    FLAGS DCP
    REM REPLAYGAIN_TRACK_GAIN -7.59 dB
    REM REPLAYGAIN_TRACK_PEAK 0.929199
    INDEX 01 00:00:00
FILE "04 - Utopia.flac" WAVE
  TRACK 04 AUDIO
    TITLE "Utopia"
    PERFORMER "Björk"
    ISRC GBBTF1700360
    FLAGS DCP
    REM REPLAYGAIN_TRACK_GAIN -9.28 dB
    REM REPLAYGAIN_TRACK_PEAK 1.000000
    INDEX 01 00:00:00
FILE "05 - Body Memory.flac" WAVE
  TRACK 05 AUDIO
    TITLE "Body Memory"
    PERFORMER "Björk"
    ISRC GBBTF1700358
    FLAGS DCP
    REM REPLAYGAIN_TRACK_GAIN -9.78 dB
    REM REPLAYGAIN_TRACK_PEAK 0.984039
    INDEX 01 00:00:00
FILE "06 - Features Creatures.flac" WAVE
  TRACK 06 AUDIO
    TITLE "Features Creatures"
    PERFORMER "Björk"
    ISRC GBBTF1700367
    FLAGS DCP
    REM REPLAYGAIN_TRACK_GAIN -8.40 dB
    REM REPLAYGAIN_TRACK_PEAK 0.931915
    INDEX 01 00:00:00
FILE "07 - Courtship.flac" WAVE
  TRACK 07 AUDIO
    TITLE "Courtship"
    PERFORMER "Björk"
    ISRC GBBTF1700362
    FLAGS DCP
    REM REPLAYGAIN_TRACK_GAIN -9.40 dB
    REM REPLAYGAIN_TRACK_PEAK 1.000000
    INDEX 01 00:00:00
FILE "08 - Losss.flac" WAVE
  TRACK 08 AUDIO
    TITLE "Losss"
    PERFORMER "Björk"
    ISRC GBBTF1700359
    FLAGS DCP
    REM REPLAYGAIN_TRACK_GAIN -10.10 dB
    REM REPLAYGAIN_TRACK_PEAK 0.998566
    INDEX 01 00:00:00
FILE "09 - Sue Me.flac" WAVE
  TRACK 09 AUDIO
    TITLE "Sue Me"
    PERFORMER "Björk"
    ISRC GBBTF1700363
    FLAGS DCP
    REM REPLAYGAIN_TRACK_GAIN -9.17 dB
    REM REPLAYGAIN_TRACK_PEAK 1.000000
    INDEX 01 00:00:00
FILE "10 - Tabula Rasa.flac" WAVE
  TRACK 10 AUDIO
    TITLE "Tabula Rasa"
    PERFORMER "Björk"
    ISRC GBBTF1700364
    FLAGS DCP
    REM REPLAYGAIN_TRACK_GAIN -8.86 dB
    REM REPLAYGAIN_TRACK_PEAK 0.917572
    INDEX 01 00:00:00
FILE "11 - Claimstaker.flac" WAVE
  TRACK 11 AUDIO
    TITLE "Claimstaker"
    PERFORMER "Björk"
    ISRC GBBTF1700365
    FLAGS DCP
    REM REPLAYGAIN_TRACK_GAIN -8.29 dB
    REM REPLAYGAIN_TRACK_PEAK 0.919739
    INDEX 01 00:00:00
FILE "12 - Paradisia.flac" WAVE
  TRACK 12 AUDIO
    TITLE "Paradisia"
    PERFORMER "Björk"
    ISRC GBBTF1700366
    FLAGS DCP
    REM REPLAYGAIN_TRACK_GAIN -2.04 dB
    REM REPLAYGAIN_TRACK_PEAK 0.650574
    INDEX 01 00:00:00
FILE "13 - Saint.flac" WAVE
  TRACK 13 AUDIO
    TITLE "Saint"
    PERFORMER "Björk"
    ISRC GBBTF1700361
    FLAGS DCP
    REM REPLAYGAIN_TRACK_GAIN -8.52 dB
    REM REPLAYGAIN_TRACK_PEAK 0.964386
    INDEX 01 00:00:00
FILE "14 - Future Forever.flac" WAVE
  TRACK 14 AUDIO
    TITLE "Future Forever"
    PERFORMER "Björk"
    ISRC GBBTF1700368
    FLAGS DCP
    REM REPLAYGAIN_TRACK_GAIN -7.38 dB
    REM REPLAYGAIN_TRACK_PEAK 0.903168
    INDEX 01 00:00:00

Этот торрент недоступен для скачивания без регистрации, однако доступен по публичной magnet-ссылке (источники с публичных трекеров). Перед использованием ссылки прочтите, пожалуйста Пользовательское соглашение, а также как можно дольше оставайтесь на раздаче! Для того, чтобы скачать сам торрент-файл (который видит больше источников), а также для того, чтобы поблагодарить релизера, вам необходимо зарегистрироваться. Если регистрироваться лень - вы можете также попробовать скачать релиз по нашим партнерским ссылкам ниже. Кроме того, зарегистрированным пользователям не показывается всплывающая реклама при скачивании.

[underverse.me].t94271.torrent
Трекер: Зарегистрирован   [ 03.01.2018 23:53 ]  
Статус: проверено (by Darkferse at 03.01.2018 23:54)
Поблагодарили: пока никто не поблагодарил...
Тип торрента: публичный - доступные источники с открытых трекеров: 
Размер: 450 MB (занимает 0.1 DVDR, для записи нужно 1 болванка DVDR/RW)
 
 

Яндекс.Метрика powered by Sphinx


В Н И М А Н И Е
Сайт не распространяет и не хранит электронные версии произведений, а лишь бесплатно и без коммерческой выгоды (не требуя взамен платы,
SMS и т.д.) предоставляет доступ к создаваемому пользователями каталогу ссылок на торрент-файлы, которые содержат только списки хеш-сумм.
Убедительная просьба с жалобами обращаться напрямую к пользователю, разместившему торрент файл.

Вверх