Loading...
Error

(Experimental, Folktronica, Avant-Folk) Asa-Chang & Junray - Jun Ray Song Chang (2002) [FLAC (Tracks+.CUE), lossless]

Статистика раздачи
Размер:  248 MB   |    Зарегистрирован:  4 года 8 месяцев   |    Скачан:  1 раз

Полного источника не было: 7 месяцев

Сидов:  0  |  0 KB/s  ]   Личеров:  0  |  0 KB/s  ]

* - сиды/пиры с внешних источников

   
 
Автор Сообщение

Darkferse Пол:Жен

04-Янв-2018 00:09

Asa-Chang & Junray - Jun Ray Song Chang

Жанр: Experimental, Folktronica, Avant-Folk
Год выпуска: 2002
Источник: CD
Производитель: The Leaf Label - BAY22
Аудиокодек: FLAC
Тип рипа: Tracks+.CUE
Битрейт: lossless
Продолжительность: 00:48:14

Треклист:

01. Hana (06:44)
02. Preach (04:07)
03. Kobana (04:32)
04. Nigatsu (05:48)
05. Goo-Gung-Gung (02:05)
06. Kutsu #2 (01:02)
07. Jippun (09:34)
08. Kokoni Sachiari (03:25)
09. Tabla Bol (Catastrophe) (02:26)
10. Radio-no-Youni (Comme a la radio) (06:31)
11. Kutsu (02:04)

Credits
Asa-Chang: tabla ~ congas ~ trumpet ~voice
U-zhaan: tabla ~ alto horn
Hidehiko Urayama: guitar ~ programming

Код:

Exact Audio Copy V0.99 prebeta 4 from 23. January 2008

EAC extraction logfile from 16. May 2009, 12:02

Asa-Chang & Junray / Jun Ray Song Chang

Used drive  : TSSTcorpCD/DVDW TS-H653L   Adapter: 0  ID: 2

Read mode               : Secure
Utilize accurate stream : Yes
Defeat audio cache      : Yes
Make use of C2 pointers : No

Read offset correction                      : 6
Overread into Lead-In and Lead-Out          : No
Fill up missing offset samples with silence : Yes
Delete leading and trailing silent blocks   : No
Null samples used in CRC calculations       : Yes
Used interface                              : Native Win32 interface for Win NT & 2000
Gap handling                                : Appended to previous track

Used output format              : User Defined Encoder
Selected bitrate                : 128 kBit/s
Quality                         : High
Add ID3 tag                     : No
Command line compressor         : C:\Program Files\FLAC\flac.exe
Additional command line options : -V -8 -T "artist=%a" -T "title=%t" -T "album=%g" -T "date=%y" -T "tracknumber=%n" -T "genre=%m" %s

TOC of the extracted CD

     Track |   Start  |  Length  | Start sector | End sector
    ---------------------------------------------------------
        1  |  0:00.00 |  6:43.32 |         0    |    30256
        2  |  6:43.32 |  4:06.32 |     30257    |    48738
        3  | 10:49.64 |  4:31.56 |     48739    |    69119
        4  | 15:21.45 |  5:47.47 |     69120    |    95191
        5  | 21:09.17 |  2:04.45 |     95192    |   104536
        6  | 23:13.62 |  1:01.48 |    104537    |   109159
        7  | 24:15.35 |  9:33.57 |    109160    |   152191
        8  | 33:49.17 |  3:24.05 |    152192    |   167496
        9  | 37:13.22 |  2:25.50 |    167497    |   178421
       10  | 39:38.72 |  6:30.53 |    178422    |   207724
       11  | 46:09.50 |  2:03.27 |    207725    |   216976

Track  1

     Filename D:\All things Kebin II\Downloads\__EAC LOGS__\Asa-Chang & Junray - Jun Ray Song Chang\01 - Hana.wav

     Pre-gap length  0:00:02.00

     Peak level 99.9 %
     Track quality 100.0 %
     Test CRC 88531EB1
     Copy CRC 88531EB1
     Accurately ripped (confidence 4)  [77B49F0A]
     Copy OK

Track  2

     Filename D:\All things Kebin II\Downloads\__EAC LOGS__\Asa-Chang & Junray - Jun Ray Song Chang\02 - Preach.wav

     Pre-gap length  0:00:02.69

     Peak level 99.9 %
     Track quality 100.0 %
     Test CRC FF5946BD
     Copy CRC FF5946BD
     Accurately ripped (confidence 4)  [4071DF19]
     Copy OK

Track  3

     Filename D:\All things Kebin II\Downloads\__EAC LOGS__\Asa-Chang & Junray - Jun Ray Song Chang\03 - Kobana.wav

     Pre-gap length  0:00:02.72

     Peak level 100.0 %
     Track quality 100.0 %
     Test CRC 73C77A5F
     Copy CRC 73C77A5F
     Accurately ripped (confidence 4)  [C5C8483F]
     Copy OK

Track  4

     Filename D:\All things Kebin II\Downloads\__EAC LOGS__\Asa-Chang & Junray - Jun Ray Song Chang\04 - Nigatsu.wav

     Pre-gap length  0:00:02.73

     Peak level 99.8 %
     Track quality 100.0 %
     Test CRC 6798B99A
     Copy CRC 6798B99A
     Accurately ripped (confidence 4)  [BDCC7FBD]
     Copy OK

Track  5

     Filename D:\All things Kebin II\Downloads\__EAC LOGS__\Asa-Chang & Junray - Jun Ray Song Chang\05 - Goo-Gung-Gung.wav

     Pre-gap length  0:00:02.73

     Peak level 99.8 %
     Track quality 100.0 %
     Test CRC FC6E7B9C
     Copy CRC FC6E7B9C
     Accurately ripped (confidence 4)  [74D110B6]
     Copy OK

Track  6

     Filename D:\All things Kebin II\Downloads\__EAC LOGS__\Asa-Chang & Junray - Jun Ray Song Chang\06 - Kutsu #2.wav

     Pre-gap length  0:00:02.73

     Peak level 78.7 %
     Track quality 100.0 %
     Test CRC 0E5081D5
     Copy CRC 0E5081D5
     Accurately ripped (confidence 4)  [03728EEC]
     Copy OK

Track  7

     Filename D:\All things Kebin II\Downloads\__EAC LOGS__\Asa-Chang & Junray - Jun Ray Song Chang\07 - Jippun.wav

     Pre-gap length  0:00:02.74

     Peak level 99.8 %
     Track quality 100.0 %
     Test CRC 8AF3A027
     Copy CRC 8AF3A027
     Accurately ripped (confidence 4)  [1D9C5F8D]
     Copy OK

Track  8

     Filename D:\All things Kebin II\Downloads\__EAC LOGS__\Asa-Chang & Junray - Jun Ray Song Chang\08 - Kokoni Sachiari.wav

     Pre-gap length  0:00:02.73

     Peak level 99.9 %
     Track quality 100.0 %
     Test CRC 2B7B911E
     Copy CRC 2B7B911E
     Accurately ripped (confidence 4)  [C6A98ABB]
     Copy OK

Track  9

     Filename D:\All things Kebin II\Downloads\__EAC LOGS__\Asa-Chang & Junray - Jun Ray Song Chang\09 - Tabla Bol (Catastrophe).wav

     Pre-gap length  0:00:02.69

     Peak level 99.9 %
     Track quality 100.0 %
     Test CRC E4529FEB
     Copy CRC E4529FEB
     Accurately ripped (confidence 4)  [61C39B87]
     Copy OK

Track 10

     Filename D:\All things Kebin II\Downloads\__EAC LOGS__\Asa-Chang & Junray - Jun Ray Song Chang\10 - Radio-No-Youni (Comme A La Radio).wav

     Pre-gap length  0:00:02.73

     Peak level 99.8 %
     Track quality 100.0 %
     Test CRC 9013FF8E
     Copy CRC 9013FF8E
     Accurately ripped (confidence 4)  [D9BEED2C]
     Copy OK

Track 11

     Filename D:\All things Kebin II\Downloads\__EAC LOGS__\Asa-Chang & Junray - Jun Ray Song Chang\11 - Kutsu.wav

     Pre-gap length  0:00:02.73

     Peak level 99.8 %
     Track quality 100.0 %
     Test CRC 0A2DA0E2
     Copy CRC 0A2DA0E2
     Accurately ripped (confidence 4)  [A7A2CC05]
     Copy OK

All tracks accurately ripped

No errors occurred

End of status report

Код:

REM GENRE Folktronica
REM DATE 2002
REM DISCID 830B4D0B
REM COMMENT "ExactAudioCopy v0.99pb4"
PERFORMER "Asa-Chang & Junray"
TITLE "Jun Ray Song Chang"
FILE "01. Hana.wav" WAVE
  TRACK 01 AUDIO
    TITLE "Hana"
    PERFORMER "Asa-Chang & Junray"
    INDEX 01 00:00:00
  TRACK 02 AUDIO
    TITLE "Preach"
    PERFORMER "Asa-Chang & Junray"
    INDEX 00 06:40:55
FILE "02. Preach.wav" WAVE
    INDEX 01 00:00:00
  TRACK 03 AUDIO
    TITLE "Kobana"
    PERFORMER "Asa-Chang & Junray"
    INDEX 00 04:03:53
FILE "03. Kobana.wav" WAVE
    INDEX 01 00:00:00
  TRACK 04 AUDIO
    TITLE "Nigatsu"
    PERFORMER "Asa-Chang & Junray"
    INDEX 00 04:29:01
FILE "04. Nigatsu.wav" WAVE
    INDEX 01 00:00:00
  TRACK 05 AUDIO
    TITLE "Goo-Gung-Gung"
    PERFORMER "Asa-Chang & Junray"
    INDEX 00 05:44:67
FILE "05. Goo-Gung-Gung.wav" WAVE
    INDEX 01 00:00:00
  TRACK 06 AUDIO
    TITLE "Kutsu #2"
    PERFORMER "Asa-Chang & Junray"
    INDEX 00 02:01:65
FILE "06. Kutsu #2.wav" WAVE
    INDEX 01 00:00:00
  TRACK 07 AUDIO
    TITLE "Jippun"
    PERFORMER "Asa-Chang & Junray"
    INDEX 00 00:58:67
FILE "07. Jippun.wav" WAVE
    INDEX 01 00:00:00
  TRACK 08 AUDIO
    TITLE "Kokoni Sachiari"
    PERFORMER "Asa-Chang & Junray"
    INDEX 00 09:31:02
FILE "08. Kokoni Sachiari.wav" WAVE
    INDEX 01 00:00:00
  TRACK 09 AUDIO
    TITLE "Tabla Bol (Catastrophe)"
    PERFORMER "Asa-Chang & Junray"
    INDEX 00 03:21:28
FILE "09. Tabla Bol (Catastrophe).wav" WAVE
    INDEX 01 00:00:00
  TRACK 10 AUDIO
    TITLE "Radio-no-Youni (Comme a la radio)"
    PERFORMER "Asa-Chang & Junray"
    INDEX 00 02:22:70
FILE "10. Radio-no-Youni (Comme a la radio).wav" WAVE
    INDEX 01 00:00:00
  TRACK 11 AUDIO
    TITLE "Kutsu"
    PERFORMER "Asa-Chang & Junray"
    INDEX 00 06:27:73
FILE "11. Kutsu.wav" WAVE
    INDEX 01 00:00:00
discogs.com

Этот торрент недоступен для скачивания без регистрации, однако доступен по публичной magnet-ссылке (источники с публичных трекеров). Перед использованием ссылки прочтите, пожалуйста Пользовательское соглашение, а также как можно дольше оставайтесь на раздаче! Для того, чтобы скачать сам торрент-файл (который видит больше источников), а также для того, чтобы поблагодарить релизера, вам необходимо зарегистрироваться. Если регистрироваться лень - вы можете также попробовать скачать релиз по нашим партнерским ссылкам ниже. Кроме того, зарегистрированным пользователям не показывается всплывающая реклама при скачивании.

[underverse.me].t94272.torrent
Трекер: Зарегистрирован   [ 04.01.2018 00:09 ]  
Статус: проверено (by Darkferse at 04.01.2018 00:12)
Поблагодарили: пока никто не поблагодарил...
Тип торрента: публичный - доступные источники с открытых трекеров: 
Размер: 248 MB (занимает 0.06 DVDR, для записи нужно 1 болванка DVDR/RW)
 
 

Яндекс.Метрика powered by Sphinx


В Н И М А Н И Е
Сайт не распространяет и не хранит электронные версии произведений, а лишь бесплатно и без коммерческой выгоды (не требуя взамен платы,
SMS и т.д.) предоставляет доступ к создаваемому пользователями каталогу ссылок на торрент-файлы, которые содержат только списки хеш-сумм.
Убедительная просьба с жалобами обращаться напрямую к пользователю, разместившему торрент файл.

Вверх