Loading...
Error

(Future Jazz, Leftfield, Electronic) Miramode Orchestra - Tumbler (2017) [FLAC (Tracks+.CUE), lossless]

Статистика раздачи
Размер:  241 MB   |    Зарегистрирован:  4 года 8 месяцев   |    Скачан:  6 раз

Полного источника не было: 1 год 2 месяца

Сидов:  0  |  0 KB/s  ]   Личеров:  0  |  0 KB/s  ]

* - сиды/пиры с внешних источников

   
 
Автор Сообщение

Darkferse Пол:Жен

07-Янв-2018 22:33

Miramode Orchestra - Tumbler

Жанр: Future Jazz, Leftfield, Electronic
Год выпуска: 2017
Источник: CD
Производитель: Agogo Records - AE089CD
Аудиокодек: FLAC
Тип рипа: Tracks+.CUE
Битрейт: lossless
Продолжительность: 00:41:02

Треклист:

01. Tumbler (feat. Mara von Ferne) (4:35)
02. Break Loose (feat. Mara von Ferne) (3:59)
03. The Sphere (5:02)
04. Mice in Kindergarten (5:41)
05. Night Song (feat. Dan Freeman) (5:19)
06. Group Structure (3:19)
07. Loco One (5:32)
08. Scrabble Around (3:44)
09. Hobo (feat. Inez Schafer) (3:51)

Код:

X Lossless Decoder version 20161007 (149.3)

XLD extraction logfile from 2017-04-28 00:17:29 +0200

Miramode Orchestra / Tumbler

Used drive : MATSHITA DVD-R   UJ-8A8 (revision HB14)
Media type : Pressed CD

Ripper mode             : XLD Secure Ripper
Disable audio cache     : OK for the drive with a cache less than 1375KiB
Make use of C2 pointers : NO
Read offset correction  : 102
Max retry count         : 20
Gap status              : Analyzed, Appended (except HTOA)

TOC of the extracted CD
     Track |   Start  |  Length  | Start sector | End sector
    ---------------------------------------------------------
        1  | 00:00:00 | 04:34:66 |         0    |    20615
        2  | 04:34:66 | 03:58:43 |     20616    |    38508
        3  | 08:33:34 | 05:01:45 |     38509    |    61128
        4  | 13:35:04 | 05:41:06 |     61129    |    86709
        5  | 19:16:10 | 05:19:20 |     86710    |   110654
        6  | 24:35:30 | 03:18:57 |    110655    |   125561
        7  | 27:54:12 | 05:32:00 |    125562    |   150461
        8  | 33:26:12 | 03:43:47 |    150462    |   167233
        9  | 37:09:59 | 03:50:47 |    167234    |   184530

AccurateRip Summary
    Disc not found in AccurateRip DB.

All Tracks
    Album gain               : -7.57 dB
    Peak                     : 0.966309
    Statistics
        Read error                           : 0
        Jitter error (maybe fixed)           : 0
        Retry sector count                   : 0
        Damaged sector count                 : 0

Track 01
    Filename : /XLDs/Miramode Orchestra - Tumbler (2017) [FLAC]/01 - Tumbler.flac
               /XLDs/Miramode Orchestra - Tumbler (2017) [MP3 V0]/01 - Tumbler.mp3
               /XLDs/Miramode Orchestra - Tumbler (2017) [MP3 320]/01 - Tumbler.mp3
    Pre-gap length : 00:02:00

    Track gain               : -7.66 dB
    Peak                     : 0.966278
    CRC32 hash (test run)    : A62E7408
    CRC32 hash               : A62E7408
    CRC32 hash (skip zero)   : 093136F4
    AccurateRip v1 signature : 0FBADA29
    AccurateRip v2 signature : 3D1DF3AF
        ->Track not present in AccurateRip database.
    Statistics
        Read error                           : 0
        Jitter error (maybe fixed)           : 0
        Retry sector count                   : 0
        Damaged sector count                 : 0

Track 02
    Filename : /XLDs/Miramode Orchestra - Tumbler (2017) [FLAC]/02 - Break Lose.flac
               /XLDs/Miramode Orchestra - Tumbler (2017) [MP3 V0]/02 - Break Lose.mp3
               /XLDs/Miramode Orchestra - Tumbler (2017) [MP3 320]/02 - Break Lose.mp3

    Track gain               : -10.05 dB
    Peak                     : 0.966309
    CRC32 hash (test run)    : C756440A
    CRC32 hash               : C756440A
    CRC32 hash (skip zero)   : 9F071E06
    AccurateRip v1 signature : 0BBF7829
    AccurateRip v2 signature : 2C8DA369
        ->Track not present in AccurateRip database.
    Statistics
        Read error                           : 0
        Jitter error (maybe fixed)           : 0
        Retry sector count                   : 0
        Damaged sector count                 : 0

Track 03
    Filename : /XLDs/Miramode Orchestra - Tumbler (2017) [FLAC]/03 - The Sphere.flac
               /XLDs/Miramode Orchestra - Tumbler (2017) [MP3 V0]/03 - The Sphere.mp3
               /XLDs/Miramode Orchestra - Tumbler (2017) [MP3 320]/03 - The Sphere.mp3

    Track gain               : -4.55 dB
    Peak                     : 0.966248
    CRC32 hash (test run)    : 3E024A6B
    CRC32 hash               : 3E024A6B
    CRC32 hash (skip zero)   : EB912491
    AccurateRip v1 signature : 91794096
    AccurateRip v2 signature : FE29D89D
        ->Track not present in AccurateRip database.
    Statistics
        Read error                           : 0
        Jitter error (maybe fixed)           : 0
        Retry sector count                   : 0
        Damaged sector count                 : 0

Track 04
    Filename : /XLDs/Miramode Orchestra - Tumbler (2017) [FLAC]/04 - Mice In Kindergarten.flac
               /XLDs/Miramode Orchestra - Tumbler (2017) [MP3 V0]/04 - Mice In Kindergarten.mp3
               /XLDs/Miramode Orchestra - Tumbler (2017) [MP3 320]/04 - Mice In Kindergarten.mp3

    Track gain               : -6.45 dB
    Peak                     : 0.966278
    CRC32 hash (test run)    : 6671DB8E
    CRC32 hash               : 6671DB8E
    CRC32 hash (skip zero)   : DEF9318E
    AccurateRip v1 signature : E3CB169C
    AccurateRip v2 signature : 8DF78169
        ->Track not present in AccurateRip database.
    Statistics
        Read error                           : 0
        Jitter error (maybe fixed)           : 0
        Retry sector count                   : 0
        Damaged sector count                 : 0

Track 05
    Filename : /XLDs/Miramode Orchestra - Tumbler (2017) [FLAC]/05 - Night Song.flac
               /XLDs/Miramode Orchestra - Tumbler (2017) [MP3 V0]/05 - Night Song.mp3
               /XLDs/Miramode Orchestra - Tumbler (2017) [MP3 320]/05 - Night Song.mp3

    Track gain               : -6.05 dB
    Peak                     : 0.966248
    CRC32 hash (test run)    : B8A506F8
    CRC32 hash               : B8A506F8
    CRC32 hash (skip zero)   : 563EF821
    AccurateRip v1 signature : B30D2D2B
    AccurateRip v2 signature : CFC97E5F
        ->Track not present in AccurateRip database.
    Statistics
        Read error                           : 0
        Jitter error (maybe fixed)           : 0
        Retry sector count                   : 0
        Damaged sector count                 : 0

Track 06
    Filename : /XLDs/Miramode Orchestra - Tumbler (2017) [FLAC]/06 - Group Structure.flac
               /XLDs/Miramode Orchestra - Tumbler (2017) [MP3 V0]/06 - Group Structure.mp3
               /XLDs/Miramode Orchestra - Tumbler (2017) [MP3 320]/06 - Group Structure.mp3

    Track gain               : -6.64 dB
    Peak                     : 0.966278
    CRC32 hash (test run)    : 6AA8FFD1
    CRC32 hash               : 6AA8FFD1
    CRC32 hash (skip zero)   : 3BF978D1
    AccurateRip v1 signature : ACE3FAA3
    AccurateRip v2 signature : AADF8D63
        ->Track not present in AccurateRip database.
    Statistics
        Read error                           : 0
        Jitter error (maybe fixed)           : 0
        Retry sector count                   : 0
        Damaged sector count                 : 0

Track 07
    Filename : /XLDs/Miramode Orchestra - Tumbler (2017) [FLAC]/07 - Loco One.flac
               /XLDs/Miramode Orchestra - Tumbler (2017) [MP3 V0]/07 - Loco One.mp3
               /XLDs/Miramode Orchestra - Tumbler (2017) [MP3 320]/07 - Loco One.mp3

    Track gain               : -7.05 dB
    Peak                     : 0.966278
    CRC32 hash (test run)    : 27BE4C4D
    CRC32 hash               : 27BE4C4D
    CRC32 hash (skip zero)   : 2CA5FADA
    AccurateRip v1 signature : AAF58AFF
    AccurateRip v2 signature : 54159DF6
        ->Track not present in AccurateRip database.
    Statistics
        Read error                           : 0
        Jitter error (maybe fixed)           : 0
        Retry sector count                   : 0
        Damaged sector count                 : 0

Track 08
    Filename : /XLDs/Miramode Orchestra - Tumbler (2017) [FLAC]/08 - Scrabble Around.flac
               /XLDs/Miramode Orchestra - Tumbler (2017) [MP3 V0]/08 - Scrabble Around.mp3
               /XLDs/Miramode Orchestra - Tumbler (2017) [MP3 320]/08 - Scrabble Around.mp3

    Track gain               : -6.19 dB
    Peak                     : 0.966278
    CRC32 hash (test run)    : 85C9704E
    CRC32 hash               : 85C9704E
    CRC32 hash (skip zero)   : 5087BFB5
    AccurateRip v1 signature : EDA3E207
    AccurateRip v2 signature : C053C4DB
        ->Track not present in AccurateRip database.
    Statistics
        Read error                           : 0
        Jitter error (maybe fixed)           : 0
        Retry sector count                   : 0
        Damaged sector count                 : 0

Track 09
    Filename : /XLDs/Miramode Orchestra - Tumbler (2017) [FLAC]/09 - Hobo.flac
               /XLDs/Miramode Orchestra - Tumbler (2017) [MP3 V0]/09 - Hobo.mp3
               /XLDs/Miramode Orchestra - Tumbler (2017) [MP3 320]/09 - Hobo.mp3

    Track gain               : -8.70 dB
    Peak                     : 0.966278
    CRC32 hash (test run)    : AB2ABF1D
    CRC32 hash               : AB2ABF1D
    CRC32 hash (skip zero)   : C098FF69
    AccurateRip v1 signature : 4E9C5379
    AccurateRip v2 signature : AC2CB0DB
        ->Track not present in AccurateRip database.
    Statistics
        Read error                           : 0
        Jitter error (maybe fixed)           : 0
        Retry sector count                   : 0
        Damaged sector count                 : 0

No errors occurred

End of status report

-----BEGIN XLD SIGNATURE-----
OomitDBt9DQ9ZBCtPeoJgLMfl2NRW1E0UiCv4rEnyqZ3SAvfqqD94zSmTEs2x2FlPTrO6oAed0KKMoczPkH.cZT7iqCjatz_t88o6va
-----END XLD SIGNATURE-----

Код:

TITLE "Tumbler"
PERFORMER "Miramode Orchestra"
CATALOG 4260130540890
REM GENRE "Electronic"
REM DATE "2017"
REM DISCID 74099C09
REM REPLAYGAIN_ALBUM_GAIN -7.57 dB
REM REPLAYGAIN_ALBUM_PEAK 0.966309
FILE "01 - Tumbler (feat. Mara von Ferne).flac" WAVE
  TRACK 01 AUDIO
    TITLE "Tumbler (feat. Mara von Ferne)"
    ISRC DEEQ71708901
    REM REPLAYGAIN_TRACK_GAIN -7.66 dB
    REM REPLAYGAIN_TRACK_PEAK 0.966278
    INDEX 01 00:00:00
FILE "02 - Break Loose (feat. Mara von Ferne).flac" WAVE
  TRACK 02 AUDIO
    TITLE "Break Loose (feat. Mara von Ferne)"
    ISRC DEEQ71708902
    REM REPLAYGAIN_TRACK_GAIN -10.05 dB
    REM REPLAYGAIN_TRACK_PEAK 0.966309
    INDEX 01 00:00:00
FILE "03 - The Sphere.flac" WAVE
  TRACK 03 AUDIO
    TITLE "The Sphere"
    ISRC DEEQ71708903
    REM REPLAYGAIN_TRACK_GAIN -4.55 dB
    REM REPLAYGAIN_TRACK_PEAK 0.966248
    INDEX 01 00:00:00
FILE "04 - Mice in Kindergarten.flac" WAVE
  TRACK 04 AUDIO
    TITLE "Mice in Kindergarten"
    ISRC DEEQ71708904
    REM REPLAYGAIN_TRACK_GAIN -6.45 dB
    REM REPLAYGAIN_TRACK_PEAK 0.966278
    INDEX 01 00:00:00
FILE "05 - Night Song (feat. Dan Freeman).flac" WAVE
  TRACK 05 AUDIO
    TITLE "Night Song (feat. Dan Freeman)"
    ISRC DEEQ71708905
    REM REPLAYGAIN_TRACK_GAIN -6.05 dB
    REM REPLAYGAIN_TRACK_PEAK 0.966248
    INDEX 01 00:00:00
FILE "06 - Group Structure.flac" WAVE
  TRACK 06 AUDIO
    TITLE "Group Structure"
    ISRC DEEQ71708906
    REM REPLAYGAIN_TRACK_GAIN -6.64 dB
    REM REPLAYGAIN_TRACK_PEAK 0.966278
    INDEX 01 00:00:00
FILE "07 - Loco One.flac" WAVE
  TRACK 07 AUDIO
    TITLE "Loco One"
    ISRC DEEQ71708907
    REM REPLAYGAIN_TRACK_GAIN -7.05 dB
    REM REPLAYGAIN_TRACK_PEAK 0.966278
    INDEX 01 00:00:00
FILE "08 - Scrabble Around.flac" WAVE
  TRACK 08 AUDIO
    TITLE "Scrabble Around"
    ISRC DEEQ71708908
    REM REPLAYGAIN_TRACK_GAIN -6.19 dB
    REM REPLAYGAIN_TRACK_PEAK 0.966278
    INDEX 01 00:00:00
FILE "09 - Hobo (feat. Inez Schafer).flac" WAVE
  TRACK 09 AUDIO
    TITLE "Hobo (feat. Inez Schafer)"
    ISRC DEEQ71708909
    REM REPLAYGAIN_TRACK_GAIN -8.70 dB
    REM REPLAYGAIN_TRACK_PEAK 0.966278
    INDEX 01 00:00:00

Этот торрент недоступен для скачивания без регистрации, однако доступен по публичной magnet-ссылке (источники с публичных трекеров). Перед использованием ссылки прочтите, пожалуйста Пользовательское соглашение, а также как можно дольше оставайтесь на раздаче! Для того, чтобы скачать сам торрент-файл (который видит больше источников), а также для того, чтобы поблагодарить релизера, вам необходимо зарегистрироваться. Если регистрироваться лень - вы можете также попробовать скачать релиз по нашим партнерским ссылкам ниже. Кроме того, зарегистрированным пользователям не показывается всплывающая реклама при скачивании.

[underverse.me].t94445.torrent
Трекер: Зарегистрирован   [ 07.01.2018 22:33 ]  
Статус: проверено (by Darkferse at 07.01.2018 22:34)
Поблагодарили: пока никто не поблагодарил...
Тип торрента: публичный - доступные источники с открытых трекеров: 
Размер: 241 MB (занимает 0.05 DVDR, для записи нужно 1 болванка DVDR/RW)
 
 

Яндекс.Метрика powered by Sphinx


В Н И М А Н И Е
Сайт не распространяет и не хранит электронные версии произведений, а лишь бесплатно и без коммерческой выгоды (не требуя взамен платы,
SMS и т.д.) предоставляет доступ к создаваемому пользователями каталогу ссылок на торрент-файлы, которые содержат только списки хеш-сумм.
Убедительная просьба с жалобами обращаться напрямую к пользователю, разместившему торрент файл.

Вверх