Loading...
Error

Назад в будущее / Back to the Future (Роберт Земекис / Robert Zemeckis) [1985 г., фантастика, комедия, приключения, BDRip-AVC] Dub + Original (Eng) + Sub (Rus, Eng) Ripodelnia

Статистика раздачи
Размер:  2.91 GB   |    Зарегистрирован:  4 года 6 месяцев   |    Скачан:  3 раза

Полного источника не было: 2 года 11 месяцев

Сидов:  0  |  0 KB/s  ]   Личеров:  0  |  0 KB/s  ]

* - сиды/пиры с внешних источников

   
 
Автор Сообщение

Ripodelnia Пол:Муж

28-Фев-2018 17:46

Назад в будущее / Back to the Future


Год выпуска: 1985
Жанр: фантастика, комедия, приключения
Страна: США
Режиссер: Роберт Земекис / Robert Zemeckis
В ролях: Майкл Дж. Фокс, Кристофер Ллойд, Лиа Томпсон, Криспин Гловер, Томас Ф. Уилсон, Клодия Уэллс, Марк МакКлюр, Уэнди Джо Спербер, Джордж ДиЧенцо, Фрэнсис Ли МакКейн
Сюжет фильма:
Подросток Марти с помощью машины времени, сооруженной его другом профессором доком Брауном, попадает из 80-х в далекие 50-е. Там он встречается со своими будущими родителями, еще подростками, и другом-профессором, совсем молодым.

  • Мировая премьера: 3 июля 1985
  • Российская премьера: 27 июня 2013, «Другое кино»

 
Качество видео: BDRip-AVC

Продолжительность: 01:56:01
Формат: mkv
Видео: x264, 1024x552, 2626 kbps
Аудио #1: русский, дублированный [лицензия, "Пифагор"], AC3 5.1, 448 kbps
Аудио #2: английский, оригинал, AC3 5.1, 448 kbps

Аудио #3: русский, одноголосый закадровый [Гаврилов (ранний)], AC3 5.1, 448 kbps (отдельно)
Аудио #4: русский, одноголосый закадровый [Гаврилов (поздний)], AC3 5.1, 448 kbps (отдельно)
Аудио #5: русский, одноголосый закадровый [Михалев], AC3 5.1, 448 kbps (отдельно)
Аудио #6: русский, одноголосый закадровый [Горчаков], AC3 5.1, 448 kbps (отдельно)
Аудио #7: русский, одноголосый закадровый [Дубровин], AC3 5.1, 448 kbps (отдельно)
Аудио #8: русский, одноголосый закадровый [Сербин], AC3 5.1, 448 kbps (отдельно)

Аудио #9: русский, двухголосый закадровый [Карусель], AC3 5.1, 448 kbps (отдельно)
Аудио #10: русский, двухголосый закадровый [НТВ], AC3 5.1, 448 kbps (отдельно)
Аудио #11: русский, многоголосый закадровый [ОРТ], AC3 5.1, 448 kbps (отдельно)

Аудио #12: украинский, двухголосый закадровый [лицензия, "1+1"], AC3 5.1, 448 kbps (отдельно)

Субтитры #1: вшитые отключаемые, S_TEXT/UTF8, русский
Субтитры #2: вшитые отключаемые, S_TEXT/UTF8, английский (SDH)

Код:

General
Complete name                    : D:\Back.To.The.Future.1985.BDRip.x264.Rus.Eng.Ripodelnia.mkv
Format                           : Matroska
File size                        : 2.91 GiB
Duration                         : 1h 56mn
Overall bit rate                 : 3 594 Kbps
Encoded date                     : UTC 2018-02-28 13:07:51
Writing application              : mkvmerge v20.0.0 ('I Am The Sun') 64-bit
Writing library                  : libebml v1.3.5 + libmatroska v1.4.8

Video
ID                               : 1
Format                           : AVC
Format/Info                      : Advanced Video Codec
Format profile                   : [email protected]
Format settings, CABAC           : Yes
Format settings, ReFrames        : 14 frames
Muxing mode                      : Container [email protected]
Codec ID                         : V_MPEG4/ISO/AVC
Duration                         : 1h 55mn
Bit rate                         : 2 626 Kbps
Nominal bit rate                 : 2 696 Kbps
Width                            : 1 024 pixels
Height                           : 552 pixels
Display aspect ratio             : 1.855
Frame rate                       : 23.976 fps
Resolution                       : 24 bits
Colorimetry                      : 4:2:0
Scan type                        : Progressive
Bits/(Pixel*Frame)               : 0.194
Stream size                      : 2.13 GiB (73%)
Title                            : Ripodelnia
Writing library                  : x264 core 155 r2901 7d0ff22
Encoding settings                : cabac=1 / ref=14 / deblock=1:-2:-2 / analyse=0x3:0x133 / me=umh / subme=11 / psy=1 / psy_rd=1.00:0.05 / mixed_ref=1 / me_range=48 / chroma_me=1 / trellis=2 / 8x8dct=1 / cqm=0 / deadzone=21,11 / fast_pskip=0 / chroma_qp_offset=-3 / threads=4 / lookahead_threads=1 / sliced_threads=0 / nr=0 / decimate=0 / interlaced=0 / bluray_compat=0 / constrained_intra=0 / bframes=16 / b_pyramid=2 / b_adapt=2 / b_bias=0 / direct=3 / weightb=1 / open_gop=0 / weightp=2 / keyint=240 / keyint_min=23 / scenecut=40 / intra_refresh=0 / rc_lookahead=60 / rc=2pass / mbtree=0 / bitrate=2696 / ratetol=1.0 / qcomp=0.70 / qpmin=0 / qpmax=69 / qpstep=4 / cplxblur=20.0 / qblur=0.5 / vbv_maxrate=50000 / vbv_bufsize=62500 / nal_hrd=none / filler=0 / ip_ratio=1.35 / pb_ratio=1.25 / aq=2:0.75

Audio #1
ID                               : 2
Format                           : AC-3
Format/Info                      : Audio Coding 3
Codec ID                         : A_AC3
Duration                         : 1h 56mn
Bit rate mode                    : Constant
Bit rate                         : 448 Kbps
Channel(s)                       : 6 channels
Channel positions                : Front: L C R, Surround: L R, LFE
Sampling rate                    : 48.0 KHz
Stream size                      : 372 MiB (12%)
Title                            : Russian (Dub, Pifagor)
Language                         : Russian

Audio #2
ID                               : 3
Format                           : AC-3
Format/Info                      : Audio Coding 3
Codec ID                         : A_AC3
Duration                         : 1h 56mn
Bit rate mode                    : Constant
Bit rate                         : 448 Kbps
Channel(s)                       : 6 channels
Channel positions                : Front: L C R, Surround: L R, LFE
Sampling rate                    : 48.0 KHz
Stream size                      : 372 MiB (12%)
Title                            : English (Original)
Language                         : English

Text #1
ID                               : 4
Format                           : UTF-8
Codec ID                         : S_TEXT/UTF8
Codec ID/Info                    : UTF-8 Plain Text
Title                            : Russian (full)
Language                         : Russian

Text #2
ID                               : 5
Format                           : UTF-8
Codec ID                         : S_TEXT/UTF8
Codec ID/Info                    : UTF-8 Plain Text
Title                            : English (SDH)
Language                         : English

Релиз группы: Ripodelnia

picpicpic
Для увеличения картинки щелкните мышкой по превью

Этот торрент недоступен для скачивания без регистрации, однако доступен по публичной magnet-ссылке (источники с публичных трекеров). Перед использованием ссылки прочтите, пожалуйста Пользовательское соглашение, а также как можно дольше оставайтесь на раздаче! Для того, чтобы скачать сам торрент-файл (который видит больше источников), а также для того, чтобы поблагодарить релизера, вам необходимо зарегистрироваться. Если регистрироваться лень - вы можете также попробовать скачать релиз по нашим партнерским ссылкам ниже. Кроме того, зарегистрированным пользователям не показывается всплывающая реклама при скачивании.

[underverse.me].t98357.torrent
Трекер: Зарегистрирован   [ 28.02.2018 17:46 ]  
Статус: проверено (by Паукан at 28.02.2018 18:25)
Поблагодарили: 1 человек
Тип торрента: публичный - доступные источники с открытых трекеров: 
Размер: 2.91 GB (занимает 2/3 DVDR, для записи нужно 1 болванка DVDR/RW)
 
 

Яндекс.Метрика powered by Sphinx


В Н И М А Н И Е
Сайт не распространяет и не хранит электронные версии произведений, а лишь бесплатно и без коммерческой выгоды (не требуя взамен платы,
SMS и т.д.) предоставляет доступ к создаваемому пользователями каталогу ссылок на торрент-файлы, которые содержат только списки хеш-сумм.
Убедительная просьба с жалобами обращаться напрямую к пользователю, разместившему торрент файл.

Вверх